Christmas in Connecticut (P. Godfrey, 1945) DVDRip VOSE+AuEs

Elinks de largometrajes de cine clásico (Classic feature films) anteriores a 1.959 inclusive (<= 1.959) cuyo metraje exceda los 45 minutos (> 45 min.)

Re: Christmas in Connecticut (Peter Godfrey, 1945) DVDRip VOSE

Notapor heinlein » Mar Nov 11, 2008 12:20 pm

Pincho película, subtítulos y audio en descarga directa.

Muchas gracias.
Cine-clásico secuestrado: TOTEM, pásale de una vez la gestión de la web a droid y a chuschao
Avatar de Usuario
heinlein
Director consagrado
Director consagrado
 
Mensajes: 3258
Registrado: Dom Oct 09, 2005 1:03 am

Re: Christmas in Connecticut (Peter Godfrey, 1945) DVDRip VOSE

Notapor fjb48 » Mié Nov 12, 2008 12:07 am

¡qué bonito regalo de Navidad!; me la bajo parea verla el día de Reyes; gracias a los implicados y felicidades a Spirit por su segundo hijo.
saludos. :hola:
Avatar de Usuario
fjb48
Director consagrado
Director consagrado
 
Mensajes: 1227
Registrado: Mar Jul 24, 2007 8:56 am

Re: Christmas in Connecticut (P.Godfrey, 1945) DVDRip VOSE+Au.Es

Notapor jangelcm » Mié Nov 12, 2008 12:21 pm

Muchas gracias por ese audio.

:good:
"La cebolla nos hace llorar. Pero aún no se ha inventado el vegetal que nos haga reír"(F.Capra)
Avatar de Usuario
jangelcm
Director consagrado
Director consagrado
 
Mensajes: 4381
Registrado: Jue Ago 18, 2005 3:46 pm
Ubicación: Al sur del sur

Re: Christmas in Connecticut (P.Godfrey, 1945) DVDRip VOSE+Au.Es

Notapor flomer » Mié Nov 12, 2008 8:29 pm

Me lo llevo todo. Gracias a todos.
Avatar de Usuario
flomer
Gran camarógraf@
Gran camarógraf@
 
Mensajes: 322
Registrado: Jue Ago 18, 2005 7:19 pm
Ubicación: Aquí mismo

Re: Christmas in Connecticut (P.Godfrey, 1945) DVDRip VOSE+Au.Es

Notapor xperico » Jue Nov 13, 2008 1:49 pm

Imagen
Recorte de la emisión del 24 de diciembre de 1991 (¡que añoranza!)
Avatar de Usuario
xperico
Director consagrado
Director consagrado
 
Mensajes: 1650
Registrado: Lun Feb 25, 2008 8:25 am
Ubicación: nunha línea ortoténica das Rías Baixas

Re: Christmas in Connecticut (P. Godfrey, 1945) DVDRip VOSE+

Notapor locotus » Vie Abr 29, 2011 10:24 pm

A continuación os dejo este DVDRip. al que el audio aportado por Enhaut y Theycame le
cae perfectamente. Los subtitulos en español los he traducidos nuevamente en su totalidad y
resincronizados, ya que los que trajo el DVd, y que son los mismos que en el post del encabezado
son bastante malos.

Capturas:

Imagen

Imagen

Imagen

Imagen

Datos:
Código: Seleccionar todo
General
Complete name                    : Christmas In Connecticut.DVDRip.avi
Format                           : AVI
Format/Info                      : Audio Video Interleave
File size                        : 1.39 GiB
Duration                         : 1h 41mn
Overall bit rate                 : 1 969 Kbps

Video
ID                               : 0
Format                           : MPEG-4 Visual
Format profile                   : Advanced Simple@L5
Format settings, BVOP            : 2
Format settings, QPel            : No
Format settings, GMC             : No warppoints
Format settings, Matrix          : Default (MPEG)
Codec ID                         : XVID
Codec ID/Hint                    : XviD
Duration                         : 1h 41mn
Bit rate                         : 1 836 Kbps
Width                            : 656 pixels
Height                           : 480 pixels
Display aspect ratio             : 4:3
Frame rate                       : 23.976 fps
Color space                      : YUV
Chroma subsampling               : 4:2:0
Bit depth                        : 8 bits
Scan type                        : Progressive
Compression mode                 : Lossy
Bits/(Pixel*Frame)               : 0.243
Stream size                      : 1.30 GiB (93%)
Writing library                  : XviD 1.2.1 (UTC 2008-12-04)

Audio
ID                               : 1
Format                           : MPEG Audio
Format version                   : Version 1
Format profile                   : Layer 3
Codec ID                         : 55
Codec ID/Hint                    : MP3
Duration                         : 1h 41mn
Bit rate mode                    : Constant
Bit rate                         : 128 Kbps
Channel(s)                       : 1 channel
Sampling rate                    : 48.0 KHz
Compression mode                 : Lossy
Stream size                      : 92.8 MiB (6%)
Alignment                        : Aligned on interleaves
Interleave, duration             : 167 ms (4.00 video frames)
Interleave, preload duration     : 216 ms
Title                            : VTS_01_1 T80 1_0ch 192Kbps DELAY 0ms
Writing library                  : LAME3.98r
Encoding settings                : -m m -V 4 -q 2 -lowpass 20.5 -b 128


Subtítulos en descarga directa:
http://www.subdivx.com/X6XMjQyMDMyX-chr ... ticut.html

eD2K link Christmas In Connecticut.DVDRip.avi [1.39 Gb] 
Última edición por locotus el Sab Abr 30, 2011 1:34 pm, editado 1 vez en total
¿Zorrilla?: “Los muertos que vos matáis gozan de buena salud”.
Avatar de Usuario
locotus
Director consagrado
Director consagrado
 
Mensajes: 1350
Registrado: Mié Feb 15, 2006 3:14 pm
Ubicación: Adelante... Houston

Re: Christmas in Connecticut (P. Godfrey, 1945) DVDRip VOSE+

Notapor agentefree » Vie Abr 29, 2011 11:11 pm

¡Gracias, locotus :bravo: :bravo: :bravo: !
agentefree
Gran Productor
Gran Productor
 
Mensajes: 614
Registrado: Jue Jul 23, 2009 9:21 pm

Re: Christmas in Connecticut (P. Godfrey, 1945) DVDRip VOSE+

Notapor theycame2001 » Sab Abr 30, 2011 1:58 am

¡Muchas gracias, Locotus! Agradable volver a pronunciar tu nombre. :good:
- Un guión debe tener lógica. La vida no la tiene -le dijo Bogart a Theycame2001 un día.
- Sí que la tiene, Boogey-respondió Theycame-. Lo que ocurre es que nosotros no solemos darnos cuenta de cuándo se termina la película.
Avatar de Usuario
theycame2001
Director consagrado
Director consagrado
 
Mensajes: 5754
Registrado: Dom Ene 29, 2006 5:32 pm

Re: Christmas in Connecticut (P. Godfrey, 1945) DVDRip VOSE+

Notapor tequila » Sab Abr 30, 2011 8:37 am

Enorme trabajo.
:bravo:
tequila
Director consagrado
Director consagrado
 
Mensajes: 1266
Registrado: Vie Mar 19, 2010 1:42 pm
Ubicación: Oviedo.

Re: Christmas in Connecticut (P. Godfrey, 1945) DVDRip VOSE+

Notapor PolMcCarry » Dom May 01, 2011 10:47 pm

tequila escribió:Enorme trabajo.
:bravo:



Y tanto... :good: :hola:
Avatar de Usuario
PolMcCarry
Director consagrado
Director consagrado
 
Mensajes: 5149
Registrado: Sab Jun 02, 2007 2:38 am

Re: Christmas in Connecticut (P. Godfrey, 1945) DVDRip VOSE+

Notapor PIPOKUKI » Lun May 02, 2011 12:18 am

Me apunto al nuevo ripeo. Gracias por el trabajo, me gusta mucho esta película, y ahora la veremos como se merece.
PIPOKUKI
Expert@ en la materia
Expert@ en la materia
 
Mensajes: 299
Registrado: Mié Ene 04, 2006 7:38 pm

Re: Christmas in Connecticut (P. Godfrey, 1945) DVDRip VOSE+

Notapor gatos » Sab May 07, 2011 1:04 pm

¡Me la llevo con todo, subs y audio! Un millón de gracias locotus, Enhaut y Theycame!!!!
Avatar de Usuario
gatos
Director consagrado
Director consagrado
 
Mensajes: 1144
Registrado: Sab Abr 05, 2008 12:25 pm

Anterior

Volver a Largos Clásicos

¿Quién está conectado?

Usuarios navegando por este Foro: No hay usuarios registrados visitando el Foro y 8 invitados