Grand Hotel (E. Goulding, 1932) DVDRip Dual SE

Elinks de largometrajes de cine clásico (Classic feature films) anteriores a 1.959 inclusive (<= 1.959) cuyo metraje exceda los 45 minutos (> 45 min.)

Grand Hotel (E. Goulding, 1932) DVDRip Dual SE

Notapor locotus » Vie Mar 09, 2012 9:29 pm

A continuación os presento este DVDRip Dual Inglés-Español,
con subtítulos en esos idiomas incluidos en el contenedor MKV.
El audio español procede del ripeo de Davinci14.

Imagen

ImagenImagenImagen

Director: Edmund Goulding

Writing credits: Vicki Baum (novel and play "Menschen im Hotel")
William A. Drake (play "Grand Hotel")
William A. Drake (adaptation) uncredited
Béla Balázs uncredited
Reparto:
Greta Garbo ... Grusinskaya - the Dancer
John Barrymore ... The Baron Felix von Gaigern
Joan Crawford ... Flaemmchen - the Stenographer
Wallace Beery ... General Director Preysing
Lionel Barrymore... Otto Kringelein
Lewis Stone ... Doctor Otternschlag
Jean Hersholt ... Senf - the Porter
Robert McWade ... Meierheim (as Robert Mc Wade)
Purnell Pratt ... Zinnowitz (as Purnell B. Pratt)
Ferdinand Gottschalk... Pimenov
Rafaela Ottiano ... Suzette
Morgan Wallace ... Chauffeur
Tully Marshall ... Gerstenkorn
Frank Conroy ... Rohna
Murray Kinnell ... Schweimann
Edwin Maxwell ... Dr. Waitz
Runtime: 112 min (Turner library print)
Sound Mix: Mono (Western Electric Sound System)
Color: Black and White
Aspect Ratio: 1.37 : 1

Gran hotel
http://www.imdb.com/title/tt0022958/

Sinopsis:

Las diferentes historias de los huéspedes de un elegante hotel es el argumento de este esperadísimo film de la época, dado su brillante reparto y los publicitados problemas de enfrentamientos de egos surgidos entre sus estrellas durante su rodaje. Obtuvo tan sólo un oscar, pero fue el de mejor película. (FILMAFFINITY)

Datos:
Código: Seleccionar todo
General
Unique ID                                : 239443210645366415710678935378852985468 (0xB42315BE6131D42988B0C3BE9CB23A7C)
Complete name                            : D:\Temp\Grand Hotel.DVDRip.Dual.mkv
Format                                   : Matroska
Format version                           : Version 2
File size                                : 1.75 GiB
Duration                                 : 1h 52mn
Overall bit rate                         : 2 226 Kbps
Encoded date                             : UTC 2012-03-09 18:58:46
Writing application                      : mkvmerge v5.2.1 ('A Far Off Place') built on Jan  2 2012 20:38:08
Writing library                          : libebml v1.2.3 + libmatroska v1.3.0

Video
ID                                       : 1
Format                                   : AVC
Format/Info                              : Advanced Video Codec
Format profile                           : High@L4.1
Format settings, CABAC                   : Yes
Format settings, ReFrames                : 4 frames
Codec ID                                 : V_MPEG4/ISO/AVC
Duration                                 : 1h 52mn
Bit rate                                 : 1 836 Kbps
Width                                    : 720 pixels
Height                                   : 480 pixels
Display aspect ratio                     : 4:3
Frame rate                               : 23.976 fps
Standard                                 : NTSC
Color space                              : YUV
Chroma subsampling                       : 4:2:0
Bit depth                                : 8 bits
Scan type                                : Progressive
Bits/(Pixel*Frame)                       : 0.222
Stream size                              : 1.42 GiB (81%)
Writing library                          : x264 core 120 r2164 da19765
Encoding settings                        : cabac=1 / ref=3 / deblock=1:-1:-1 / analyse=0x3:0x113 / me=hex / subme=7 / psy=1 / psy_rd=1.00:0.15 / mixed_ref=1 / me_range=16 / chroma_me=1 / trellis=1 / 8x8dct=1 / cqm=0 / deadzone=21,11 / fast_pskip=1 / chroma_qp_offset=-3 / threads=6 / sliced_threads=0 / nr=0 / decimate=1 / interlaced=0 / bluray_compat=0 / constrained_intra=0 / bframes=3 / b_pyramid=2 / b_adapt=1 / b_bias=0 / direct=1 / weightb=1 / open_gop=0 / weightp=2 / keyint=240 / keyint_min=23 / scenecut=40 / intra_refresh=0 / rc_lookahead=40 / rc=2pass / mbtree=1 / bitrate=1836 / ratetol=1.0 / qcomp=0.60 / qpmin=0 / qpmax=69 / qpstep=4 / cplxblur=20.0 / qblur=0.5 / ip_ratio=1.40 / aq=1:1.00
Default                                  : Yes
Forced                                   : No

Audio #1
ID                                       : 2
Format                                   : AC-3
Format/Info                              : Audio Coding 3
Mode extension                           : CM (complete main)
Codec ID                                 : A_AC3
Duration                                 : 1h 52mn
Bit rate mode                            : Constant
Bit rate                                 : 192 Kbps
Channel(s)                               : 1 channel
Channel positions                        : Front: C
Sampling rate                            : 48.0 KHz
Bit depth                                : 16 bits
Compression mode                         : Lossy
Stream size                              : 155 MiB (9%)
Language                                 : English
Default                                  : Yes
Forced                                   : No

Audio #2
ID                                       : 3
Format                                   : AC-3
Format/Info                              : Audio Coding 3
Format profile                           : Dolby Digital
Mode extension                           : CM (complete main)
Codec ID                                 : A_AC3
Duration                                 : 1h 52mn
Bit rate mode                            : Constant
Bit rate                                 : 192 Kbps
Channel(s)                               : 2 channels
Channel positions                        : Front: L R
Sampling rate                            : 48.0 KHz
Bit depth                                : 16 bits
Compression mode                         : Lossy
Delay relative to video                  : 4s 0ms
Stream size                              : 155 MiB (9%)
Language                                 : Spanish
Default                                  : No
Forced                                   : No

En su oportunidad este post será unificado al original de la peli que puede verse aquí:
viewtopic.php?f=90&t=24332&p=374808&hilit=grand+hotel#p374808

Elink:
eD2K link Grand Hotel.DVDRip.Dual.mkv [1.75 Gb] 
¿Zorrilla?: “Los muertos que vos matáis gozan de buena salud”.
Avatar de Usuario
locotus
Director consagrado
Director consagrado
 
Mensajes: 1350
Registrado: Mié Feb 15, 2006 3:14 pm
Ubicación: Adelante... Houston

Re: Grand Hotel (E. Goulding, 1932) DVDRip Dual SE

Notapor yojimbo » Vie Mar 09, 2012 10:19 pm

Gran trabajo, locotus. Mejoraré así mi copia.

Saludos.
yojimbo
Gran Productor
Gran Productor
 
Mensajes: 747
Registrado: Jue Nov 09, 2006 11:17 pm

Re: Grand Hotel (E. Goulding, 1932) DVDRip Dual SE

Notapor LuisNieto » Vie Mar 09, 2012 11:47 pm

Muchas gracias por el trabajo y por compartirla.

Saludos.
LuisNieto
Espectador
Espectador
 
Mensajes: 25
Registrado: Lun Feb 27, 2012 8:20 pm

Re: Grand Hotel (E. Goulding, 1932) DVDRip Dual SE

Notapor Brateh » Sab Mar 10, 2012 2:35 am

Muchas gracias, locotus!.. :hola: :good: :bravo:
Avatar de Usuario
Brateh
Extra de cine
Extra de cine
 
Mensajes: 148
Registrado: Mar Mar 04, 2008 7:03 pm
Ubicación: en el centro de Argentina

Re: Grand Hotel (E. Goulding, 1932) DVDRip Dual SE

Notapor nguada » Sab Mar 10, 2012 3:53 am

¡Muchas gracias, locotus!
nguada
Aficionad@
Aficionad@
 
Mensajes: 55
Registrado: Mié Jun 11, 2008 3:38 am

Re: Grand Hotel (E. Goulding, 1932) DVDRip Dual SE

Notapor Ciberyago » Sab Mar 10, 2012 5:29 am

Muchas gracias!
Ciberyago
Guionista colosal
Guionista colosal
 
Mensajes: 555
Registrado: Mar Feb 17, 2009 4:09 am
Ubicación: Argentina

Re: Grand Hotel (E. Goulding, 1932) DVDRip Dual SE

Notapor bette » Sab Mar 10, 2012 9:28 am

Muchas gracias locotus :good:
:hola:
Avatar de Usuario
bette
Gran Productor
Gran Productor
 
Mensajes: 662
Registrado: Vie Mar 09, 2007 7:25 am

Re: Grand Hotel (E. Goulding, 1932) DVDRip Dual SE

Notapor orsonhitchcock » Sab Mar 10, 2012 2:48 pm

Muchas gracias. Pinchando.
Avatar de Usuario
orsonhitchcock
Haciendo méritos
Haciendo méritos
 
Mensajes: 72
Registrado: Dom Feb 15, 2009 10:42 pm

Re: Grand Hotel (E. Goulding, 1932) DVDRip Dual SE

Notapor santiagoo » Sab Mar 10, 2012 9:49 pm

Yo también pincho para mejorar. Gracias, locotus.
Si quieres ayudar a guardar el contenido de este foro, pásate por ESTE HILO

Si quieres estar en contacto por si acaso, envía e-mail a santiagoo_cicl@yahoo.es poniendo en asunto solo el nick y sin texto, es solo a efectos de emergencia
Avatar de Usuario
santiagoo
Director consagrado
Director consagrado
 
Mensajes: 1284
Registrado: Jue Ago 13, 2009 10:47 pm
Ubicación: Zaragoza


Volver a Largos Clásicos

¿Quién está conectado?

Usuarios navegando por este Foro: Google [Bot], janca y 5 invitados