Made for Each Other (John Cromwell, 1939) DVDRip Dual SE

Elinks de largometrajes de cine clásico (Classic feature films) anteriores a 1.959 inclusive (<= 1.959) cuyo metraje exceda los 45 minutos (> 45 min.)

Made for Each Other (John Cromwell, 1939) DVDRip Dual SE

Notapor locotus » Sab Abr 07, 2012 1:48 am

A continuación os presento este DVDRip de la edición norteamericana, Dual inglés-español,
con subtítulos en ambos idiomas incluidos en el contenedor MKV.

Imagen

El lazo sagrado
http://www.imdb.com/title/tt0031602/

ImagenImagenImagen

Director: John Cromwell
Writing credits: Jo Swerling (screenplay)
Rose Franken (suggested by a story by)
Frank Ryan (contributor: humorous situations) uncredited
Reparto:
Carole Lombard ... Jane Mason
James Stewart ... John Horace Mason
Charles Coburn ... Judge Joseph M. Doolittle
Lucile Watson ... Mrs. Harriet Mason
Eddie Quillan ... Conway
Alma Kruger ... Sister Madeline
Ward Bond ... Jim Hatton (uncredited)
Harry Davenport ... Dr. Healy (uncredited)

Runtime: 92 min
Sound Mix: Mono (Western Electric Noiseless Recording)
Color: Black and White
Aspect Ratio: 1.37 : 1

SINOPSIS:
John Mason es un joven, algo timido abogado en la ciudad de Nueva York.
Ha estado trabajando bien y tiene la oportunidad de ser hecho socio
de su firma de abogados, especialmente si se casa con Eunice, la hija
de su empleador, el juez Doolittle.

Datos:
Código: Seleccionar todo
General
Unique ID                                : 244960567351938792782774438153080283291 (0xB849B06E79A9EC499FDDB51D7B54209B)
Complete name                            : Made For Each Other.DVDRip.mkv
Format                                   : Matroska
Format version                           : Version 2
File size                                : 1.43 GiB
Duration                                 : 1h 32mn
Overall bit rate                         : 2 200 Kbps
Encoded date                             : UTC 2012-04-06 23:17:33
Writing application                      : mkvmerge v5.4.0 ('Piper') built on Mar 10 2012 13:34:39
Writing library                          : libebml v1.2.3 + libmatroska v1.3.0

Video
ID                                       : 1
Format                                   : AVC
Format/Info                              : Advanced Video Codec
Format profile                           : High@L4.1
Format settings, CABAC                   : Yes
Format settings, ReFrames                : 4 frames
Codec ID                                 : V_MPEG4/ISO/AVC
Duration                                 : 1h 32mn
Bit rate                                 : 1 810 Kbps
Width                                    : 720 pixels
Height                                   : 544 pixels
Display aspect ratio                     : 4:3
Frame rate                               : 23.976 fps
Color space                              : YUV
Chroma subsampling                       : 4:2:0
Bit depth                                : 8 bits
Scan type                                : Progressive
Bits/(Pixel*Frame)                       : 0.193
Stream size                              : 1.15 GiB (81%)
Writing library                          : x264 core 122 r2184 5c85e0a
Encoding settings                        : cabac=1 / ref=3 / deblock=1:0:0 / analyse=0x3:0x113 / me=hex / subme=7 / psy=1 / psy_rd=1.00:0.15 / mixed_ref=1 / me_range=16 / chroma_me=1 / trellis=2 / 8x8dct=1 / cqm=0 / deadzone=21,11 / fast_pskip=1 / chroma_qp_offset=-3 / threads=6 / sliced_threads=0 / nr=0 / decimate=1 / interlaced=0 / bluray_compat=0 / constrained_intra=0 / bframes=4 / b_pyramid=2 / b_adapt=2 / b_bias=0 / direct=1 / weightb=1 / open_gop=0 / weightp=2 / keyint=240 / keyint_min=23 / scenecut=40 / intra_refresh=0 / rc_lookahead=40 / rc=2pass / mbtree=1 / bitrate=1810 / ratetol=1.0 / qcomp=0.60 / qpmin=0 / qpmax=69 / qpstep=4 / cplxblur=20.0 / qblur=0.5 / ip_ratio=1.40 / aq=1:1.00
Default                                  : Yes
Forced                                   : No

Audio #1
ID                                       : 2
Format                                   : AC-3
Format/Info                              : Audio Coding 3
Mode extension                           : CM (complete main)
Codec ID                                 : A_AC3
Duration                                 : 1h 32mn
Bit rate mode                            : Constant
Bit rate                                 : 192 Kbps
Channel(s)                               : 2 channels
Channel positions                        : Front: L R
Sampling rate                            : 48.0 KHz
Bit depth                                : 16 bits
Compression mode                         : Lossy
Stream size                              : 127 MiB (9%)
Title                                    : English AC3
Language                                 : English
Default                                  : Yes
Forced                                   : No

Audio #2
ID                                       : 3
Format                                   : AC-3
Format/Info                              : Audio Coding 3
Format profile                           : Dolby Digital
Mode extension                           : CM (complete main)
Codec ID                                 : A_AC3
Duration                                 : 1h 32mn
Bit rate mode                            : Constant
Bit rate                                 : 192 Kbps
Channel(s)                               : 2 channels
Channel positions                        : Front: L R
Sampling rate                            : 48.0 KHz
Bit depth                                : 16 bits
Compression mode                         : Lossy
Stream size                              : 127 MiB (9%)
Title                                    : Spanish AC3
Language                                 : Spanish
Default                                  : No
Forced                                   : No

Text #1
ID                                       : 4
Format                                   : VobSub
Muxing mode                              : zlib
Codec ID                                 : S_VOBSUB
Codec ID/Info                            : The same subtitle format used on DVDs
Language                                 : English
Default                                  : No
Forced                                   : No

Text #2
ID                                       : 5
Format                                   : VobSub
Muxing mode                              : zlib
Codec ID                                 : S_VOBSUB
Codec ID/Info                            : The same subtitle format used on DVDs
Language                                 : Spanish
Default                                  : No
Forced                                   : No

Elink:
eD2K link Made For Each Other.DVDRip.mkv [1.43 Gb] 
Última edición por locotus el Sab Abr 07, 2012 7:12 am, editado 2 veces en total
¿Zorrilla?: “Los muertos que vos matáis gozan de buena salud”.
Avatar de Usuario
locotus
Director consagrado
Director consagrado
 
Mensajes: 1350
Registrado: Mié Feb 15, 2006 3:14 pm
Ubicación: Adelante... Houston

Re: Made for Each Other (John Cromwell, 1939) DVDRip Dual SE

Notapor Ciberyago » Sab Abr 07, 2012 6:53 am

El tuyo es lo que se llama un trabajo completito.
Muchas gracias!!!
Ciberyago
Guionista colosal
Guionista colosal
 
Mensajes: 555
Registrado: Mar Feb 17, 2009 4:09 am
Ubicación: Argentina

Re: Made for Each Other (John Cromwell, 1939) DVDRip Dual SE

Notapor nguada » Sab Abr 07, 2012 7:54 am

Muchas gracias Locotus
nguada
Aficionad@
Aficionad@
 
Mensajes: 55
Registrado: Mié Jun 11, 2008 3:38 am

Re: Made for Each Other (John Cromwell, 1939) DVDRip Dual SE

Notapor ColoradoJim » Sab Abr 07, 2012 10:37 am

Excelente copia. Gracias.
Cine-Clásico es un sueño de todos. TOTEM, por favor, sé generoso.
Avatar de Usuario
ColoradoJim
Gran Productor
Gran Productor
 
Mensajes: 654
Registrado: Sab Nov 19, 2005 12:25 pm

Re: Made for Each Other (John Cromwell, 1939) DVDRip Dual SE

Notapor PEPEBELLUM » Sab Abr 07, 2012 11:02 am

Pincada, gracias.
Hay hombres que luchan un día y son buenos. Hay otros que luchan un año y son mejores. Hay otros que luchan muchos años y son muy buenos. Pero hay quienes luchan toda la vida, esos son imprescindibles
Bertolt Brecht
PEPEBELLUM
Director consagrado
Director consagrado
 
Mensajes: 1329
Registrado: Mié Ene 21, 2009 11:54 pm

Re: Made for Each Other (John Cromwell, 1939) DVDRip Dual SE

Notapor santiagoo » Sab Abr 07, 2012 1:36 pm

Ciberyago escribió:El tuyo es lo que se llama un trabajo completito.
Muchas gracias!!!


Y van unos cuantos últimamente. En casi todos ha sincronizado audios.

Gracias, locotus. Esta se viene también.
Si quieres ayudar a guardar el contenido de este foro, pásate por ESTE HILO

Si quieres estar en contacto por si acaso, envía e-mail a santiagoo_cicl@yahoo.es poniendo en asunto solo el nick y sin texto, es solo a efectos de emergencia
Avatar de Usuario
santiagoo
Director consagrado
Director consagrado
 
Mensajes: 1284
Registrado: Jue Ago 13, 2009 10:47 pm
Ubicación: Zaragoza

Re: Made for Each Other (John Cromwell, 1939) DVDRip Dual SE

Notapor LuisNieto » Sab Abr 07, 2012 1:36 pm

Me apunto!!

Gracias locotus :hola:
LuisNieto
Espectador
Espectador
 
Mensajes: 25
Registrado: Lun Feb 27, 2012 8:20 pm

Re: Made for Each Other (John Cromwell, 1939) DVDRip Dual SE

Notapor yojimbo » Sab Abr 07, 2012 7:07 pm

Gracias de nuevo, locotus.
yojimbo
Gran Productor
Gran Productor
 
Mensajes: 747
Registrado: Jue Nov 09, 2006 11:17 pm

Re: Made for Each Other (John Cromwell, 1939) DVDRip Dual SE

Notapor lluis600 » Sab Abr 07, 2012 7:09 pm

Gracias locotus por la información :good:
Avatar de Usuario
lluis600
Director consagrado
Director consagrado
 
Mensajes: 1488
Registrado: Jue Jun 21, 2007 7:39 am

Re: Made for Each Other (John Cromwell, 1939) DVDRip Dual SE

Notapor maurito093 » Dom Abr 08, 2012 7:45 pm

ya mismo click, gracias Locotus!
Avatar de Usuario
maurito093
Crítico de prestigio
Crítico de prestigio
 
Mensajes: 215
Registrado: Vie Sep 12, 2008 4:44 am
Ubicación: Buenos Aires, Argentina

Re: Made for Each Other (John Cromwell, 1939) DVDRip Dual SE

Notapor joeraymond » Lun Abr 09, 2012 12:06 am

Muchas gracias, locotus.
Yo también soy Cine-Clásico
Avatar de Usuario
joeraymond
Director consagrado
Director consagrado
 
Mensajes: 2727
Registrado: Mié May 10, 2006 2:19 pm

Re: Made for Each Other (John Cromwell, 1939) DVDRip Dual SE

Notapor JGUTII » Vie Abr 13, 2012 8:39 pm

Muchas gracias, locotus. C&C :hola:
Avatar de Usuario
JGUTII
Director consagrado
Director consagrado
 
Mensajes: 4755
Registrado: Mié Ago 08, 2007 9:58 pm
Ubicación: Ciudad del Betis


Volver a Largos Clásicos

¿Quién está conectado?

Usuarios navegando por este Foro: No hay usuarios registrados visitando el Foro y 3 invitados