Bend of the River (Anthony Mann, 1952) DVDRip Dual SE

Elinks de largometrajes de cine clásico (Classic feature films) anteriores a 1.959 inclusive (<= 1.959) cuyo metraje exceda los 45 minutos (> 45 min.)

Bend of the River (Anthony Mann, 1952) DVDRip Dual SE

Notapor locotus » Mar Abr 17, 2012 8:22 pm

A continuación os presento este DVDRip inglés-español, con subtítulos en ambos
idiomas incluidos en en contenedor MKV. El audio español procede del ripeo de Marc27.
Imagen

ImagenImagenImagen

Tomad esto en consideración, pero yo no he podido notar la diferencia.
Imagen

Director: Anthony Mann
Writers: Borden Chase (screenplay),
William Gulick (novel)

Reparto:
James Stewart ... Glyn McLyntock
Arthur Kennedy ... Emerson Cole
Rock Hudson ... Trey Wilson
Jay C. Flippen ... Jeremy Baile
Julie Adams ... Laura Baile (as Julia Adams)
Lori Nelson ... Marjie Baile
Chubby Johnson ... Cap'n Mello
Stepin Fetchit ... Adam (as Stepin' Fetchit)
Harry Morgan ... Shorty (as Henry Morgan)
Howard Petrie ... Tom Hendricks
Frances Bavier ... Mrs. Prentiss
Jack Lambert ... Red
Royal Dano ... Long Tom
Frank Chase ... Wasco
Cliff Lyons ... Willie
Frank Ferguson ... Tom Grundy

Runtime: 91 min
Sound Mix: Mono (Western Electric Recording)
Color: Color (Technicolor)
Aspect Ratio: 1.37 : 1

Horizontes lejanos
http://www.imdb.com/title/tt0044413/


Horizontes Lejanos se centra en Glyn McLyntock, un guía de misterioso pasado que acompaña a una caravana de colonos cuyo deseo es asentarse en unas tierras lejanas, río arriba, más allá de Portland. Un día, casualmente, salva de la horca a Emerson Colt, con el que, a pesar de los secretos, sabe que le une algo; Colt decidirá acompañar a McLyntock y los colonos a la espera de encontrar un sitio mejor. Tras el ataque de un grupo de indios y el paso por un pueblo donde compran provisiones, y donde se queda Colt, finalmente, la caravana llega a su destino. Aunque todo marcha bien, la llegada del invierno hace peligrar su existencia, necesitando urgentemente la llegada de más provisiones. Los suministros que han comprado no acaban de llegar y McLyntock se compromete a volver a buscarlos. La supervivencia de la comunidad está en sus manos.

Tomado de: http://www.blogdecine.com/criticas/hori ... s-podridas

Datos:
Código: Seleccionar todo
General
Unique ID                                : 215434104483524807538565287218095511034 (0xA213196ADA87041F9E580BE6AD2ED5FA)
Complete name                            : Bend Of The River.DVDRip.Dual.mkv
Format                                   : Matroska
Format version                           : Version 2
File size                                : 1.52 GiB
Duration                                 : 1h 31mn
Overall bit rate                         : 2 390 Kbps
Encoded date                             : UTC 2012-04-05 04:28:00
Writing application                      : mkvmerge v5.4.0 ('Piper') built on Mar 10 2012 13:34:39
Writing library                          : libebml v1.2.3 + libmatroska v1.3.0

Video
ID                                       : 1
Format                                   : AVC
Format/Info                              : Advanced Video Codec
Format profile                           : High@L4.1
Format settings, CABAC                   : Yes
Format settings, ReFrames                : 5 frames
Codec ID                                 : V_MPEG4/ISO/AVC
Duration                                 : 1h 31mn
Bit rate                                 : 2 000 Kbps
Width                                    : 720 pixels
Height                                   : 544 pixels
Display aspect ratio                     : 4:3
Frame rate                               : 23.976 fps
Color space                              : YUV
Chroma subsampling                       : 4:2:0
Bit depth                                : 8 bits
Scan type                                : Progressive
Bits/(Pixel*Frame)                       : 0.213
Stream size                              : 1.25 GiB (82%)
Writing library                          : x264 core 122 r2184 5c85e0a
Encoding settings                        : cabac=1 / ref=5 / deblock=1:-1:-1 / analyse=0x3:0x113 / me=hex / subme=7 / psy=1 / psy_rd=1.00:0.15 / mixed_ref=1 / me_range=16 / chroma_me=1 / trellis=2 / 8x8dct=1 / cqm=0 / deadzone=21,11 / fast_pskip=1 / chroma_qp_offset=-3 / threads=6 / sliced_threads=0 / nr=0 / decimate=1 / interlaced=0 / bluray_compat=0 / constrained_intra=0 / bframes=4 / b_pyramid=2 / b_adapt=2 / b_bias=0 / direct=1 / weightb=1 / open_gop=0 / weightp=2 / keyint=240 / keyint_min=23 / scenecut=40 / intra_refresh=0 / rc_lookahead=40 / rc=2pass / mbtree=1 / bitrate=2000 / ratetol=1.0 / qcomp=0.60 / qpmin=0 / qpmax=69 / qpstep=4 / cplxblur=20.0 / qblur=0.5 / ip_ratio=1.40 / aq=1:1.00
Default                                  : Yes
Forced                                   : No

Audio #1
ID                                       : 2
Format                                   : AC-3
Format/Info                              : Audio Coding 3
Mode extension                           : CM (complete main)
Codec ID                                 : A_AC3
Duration                                 : 1h 31mn
Bit rate mode                            : Constant
Bit rate                                 : 192 Kbps
Channel(s)                               : 2 channels
Channel positions                        : Front: L R
Sampling rate                            : 48.0 KHz
Bit depth                                : 16 bits
Compression mode                         : Lossy
Stream size                              : 125 MiB (8%)
Language                                 : English
Default                                  : Yes
Forced                                   : No

Audio #2
ID                                       : 3
Format                                   : AC-3
Format/Info                              : Audio Coding 3
Format profile                           : Dolby Digital
Mode extension                           : CM (complete main)
Codec ID                                 : A_AC3
Duration                                 : 1h 31mn
Bit rate mode                            : Constant
Bit rate                                 : 192 Kbps
Channel(s)                               : 2 channels
Channel positions                        : Front: L R
Sampling rate                            : 48.0 KHz
Bit depth                                : 16 bits
Compression mode                         : Lossy
Delay relative to video                  : 6s 0ms
Stream size                              : 125 MiB (8%)
Language                                 : Spanish
Default                                  : No
Forced                                   : No

Text #1
ID                                       : 4
Format                                   : VobSub
Muxing mode                              : zlib
Codec ID                                 : S_VOBSUB
Codec ID/Info                            : The same subtitle format used on DVDs
Language                                 : English
Default                                  : No
Forced                                   : No

Text #2
ID                                       : 5
Format                                   : VobSub
Muxing mode                              : zlib
Codec ID                                 : S_VOBSUB
Codec ID/Info                            : The same subtitle format used on DVDs
Language                                 : Spanish
Default                                  : No
Forced                                   : No


En su oportunidad este post será unido al original de la pelicula que puede consultarse aquí:
viewtopic.php?f=90&t=6369&p=366643&hilit=bend+river#p366643

Elink:
eD2K link Bend Of The River.DVDRip.Dual.mkv [1.52 Gb] 
Última edición por locotus el Mar Abr 17, 2012 9:23 pm, editado 2 veces en total
¿Zorrilla?: “Los muertos que vos matáis gozan de buena salud”.
Avatar de Usuario
locotus
Director consagrado
Director consagrado
 
Mensajes: 1350
Registrado: Mié Feb 15, 2006 3:14 pm
Ubicación: Adelante... Houston

Re: Bend of the River (Anthony Mann, 1952) DVDRip Dual SE

Notapor chaltonheston » Mar Abr 17, 2012 8:41 pm

Pues a mejorar copia. Gracias locotus.
chaltonheston
Amante del cine
Amante del cine
 
Mensajes: 154
Registrado: Dom Jun 14, 2009 10:20 pm

Re: Bend of the River (Anthony Mann, 1952) DVDRip Dual SE

Notapor Ciberyago » Mié Abr 18, 2012 9:46 am

Muchas gracias!
Ciberyago
Guionista colosal
Guionista colosal
 
Mensajes: 555
Registrado: Mar Feb 17, 2009 4:09 am
Ubicación: Argentina

Re: Bend of the River (Anthony Mann, 1952) DVDRip Dual SE

Notapor joeraymond » Mié Abr 18, 2012 3:42 pm

Muchas gracias, locotus.
Yo también soy Cine-Clásico
Avatar de Usuario
joeraymond
Director consagrado
Director consagrado
 
Mensajes: 2727
Registrado: Mié May 10, 2006 2:19 pm

Re: Bend of the River (Anthony Mann, 1952) DVDRip Dual SE

Notapor yojimbo » Mié Abr 18, 2012 5:53 pm

Otro gran trabajo, locotus. Muchas gracias.
yojimbo
Gran Productor
Gran Productor
 
Mensajes: 747
Registrado: Jue Nov 09, 2006 11:17 pm

Re: Bend of the River (Anthony Mann, 1952) DVDRip Dual SE

Notapor Pulp » Sab Abr 21, 2012 1:37 pm

Me apunto en cuanto pueda.

Gracias :hola:
Avatar de Usuario
Pulp
Interesado en aprender
Interesado en aprender
 
Mensajes: 30
Registrado: Vie Sep 24, 2010 2:40 am


Volver a Largos Clásicos

¿Quién está conectado?

Usuarios navegando por este Foro: Majestic-12 [Bot] y 3 invitados