Uomini e cieli (Francesco De Robertis, 1943) VOSI

Elinks de largometrajes de cine clásico (Classic feature films) anteriores a 1.959 inclusive (<= 1.959) cuyo metraje exceda los 45 minutos (> 45 min.)

Uomini e cieli (Francesco De Robertis, 1943) VOSI

Notapor Lobo López » Dom Abr 22, 2012 3:40 am

Uomini e cieli (1943)
ImagenUomini e cieli
Director: Francesco De Robertis
Guion: Francesco De Robertis
Productor: Scalera Film S.p.a.
Reparto: Giulio Faido, Lamberto Baviera, Vasco Marlia, Bruno Alfio Taccari, Anna Mancini, Teresa Ugatti, Anna Bianchi.
Duración: 77 min.
Cuatro oficiales pertenecientes al mismo escuadrón son dispersados sobre la línea del frente. Tras una estancia en el hospital, uno de ellos decide buscar a sus compañeros.
Código: Seleccionar todo
Format                           : AVI
Format/Info                      : Audio Video Interleave
File size                        : 686 MiB
Duration                         : 1h 17mn
Overall bit rate                 : 1 242 Kbps
Writing application              : VirtualDubMod 1.5.10.1 (build 2366/release)
Writing library                  : VirtualDubMod build 2366/release

Video
ID                               : 0
Format                           : MPEG-4 Visual
Format settings, BVOP            : Yes
Format settings, QPel            : No
Format settings, GMC             : No warppoints
Format settings, Matrix          : Default (H.263)
Muxing mode                      : Packed bitstream
Codec ID                         : DX50
Codec ID/Hint                    : DivX 5
Duration                         : 1h 17mn
Bit rate                         : 1 062 Kbps
Width                            : 704 pixels
Height                           : 512 pixels
Display aspect ratio             : 1.375
Frame rate                       : 25.000 fps
Color space                      : YUV
Chroma subsampling               : 4:2:0
Bit depth                        : 8 bits
Scan type                        : Progressive
Bits/(Pixel*Frame)               : 0.118
Stream size                      : 587 MiB (86%)
Writing library                  : DivX 5.2.1 Alpha (UTC 2004-09-08)

Audio
ID                               : 1
Format                           : MPEG Audio
Format version                   : Version 1
Format profile                   : Layer 3
Mode                             : Joint stereo
Mode extension                   : MS Stereo
Codec ID                         : 55
Codec ID/Hint                    : MP3
Duration                         : 1h 17mn
Bit rate mode                    : Variable
Bit rate                         : 160 Kbps
Channel(s)                       : 2 channels
Sampling rate                    : 48.0 KHz
Stream size                      : 92.2 MiB (13%)
Alignment                        : Aligned on interleaves
Interleave, duration             : 24 ms (0.60 video frame)
Interleave, preload duration     : 518 ms
AlgoRip VOSI:
eD2K link Uomini e cieli (De Robertis).avi [686.03 Mb] 


ImagenImagenImagen

ImagenImagenImagen

ImagenImagenImagen

ImagenImagenImagen


:flecha: Subtítulos en inglés: http://subs.filesstorage.com/file/74595 ... ni+e+cieli

Hoy os traigo esta película bélica que he encontrado en el emule. Algunos expertos aseguran que los filmes de De Robertis (también oficial de la Marina de Guerra y director del Centro Cinematográfico de la Marina) son precursores del Neorrealismo. Fijaos en lo que dice Mario Bava (que trabajó en algunas de las películas de De Robertis como operador) en una entrevista:

“Yo también me convertí en operador e intervine en unas cincuenta películas, trabajando con muchísimos directores: Desde Franceso De Robertis –un verdadero genio; el verdadero inventor del neorrealismo- a Mario Soldati, otro genio, quizás demasiado erudito para hacer cine.” (http://hauntedfilms.blogspot.com.es/200 ... -1976.html)

Dejemos que nuestro compañero postcefalu nos hable de la película:

“Uomini e cieli”, también con una mayoría de actores y actrices no profesionales, es otro gran film, uno de mis favoritos de esta década en Italia, de equilibrio tan delicado que constantemente parece estar a un paso de caer en el más absoluto panfleto, del que milagrosamente escapa siempre gracias a su inteligente estructura. Es una película de gestos sencillos y poco transcendentes, sin la más mínima referencia "oficialista", de carácter finalmente optimista y sin gran cosa que ver con las grandes obras del neorrealismo, aunque curiosamente más veraz y menos melodramático que muchas de ellas, quizá porque documenta la parte de la guerra en que aún no se combatía en terreno italiano y para cualquier transalpino movilizado tenía lugar en Albania, Grecia, Libia o Yugoslavia.
Así, la manera en que son contadas las peripecias (parece que nada aventureras ni valerosas y siempre en off: no vemos un solo combate aéreo) de estos cuatro amigos que ya no parece que puedan seguir siéndolo, tienen mucho que ver con el espíritu pacífico y cívico de las dos mejores películas de Wiliam Wyler, "The best years of our lives" y la muy olvidada y subvalorada "Mrs. Miniver", y también con "This happy breed" de David Lean.
Se trata tanto de vivir con los estragos de la guerra cómo de afrontar el futuro, todo visto a través de la mirada apesadumbrada del Teniente Nurus (y en la curiosa y alegre que le devuelve Elena, la chica que lo idealiza), que debe poner a prueba su capacidad para encontrar motivos para mirar al futuro, aún viviendo rodeado de motivos para perder la esperanza.
Son muchos los momentos privilegiados en "Uomini e cieli" y quizá lo mejor sea invitar a quien no la haya tenido en cuenta a tratar de verla sin ningún tipo de prejuicio.
(http://postcefalu.blogspot.com.es/2010/ ... rugia.html)

- Miguel Marías la nombra en su lista de las mejores películas vistas el pasado año (http://actodeprimavera.blogaliza.org/20 ... el-marias/)

Saludos
:hola:
Apoyo para que Chuschao y Droid sean los NUEVOS Websmaters


http://www.filmaffinity.com/es/userrati ... _id=570571
Avatar de Usuario
Lobo López
Intérprete Starsystem
Intérprete Starsystem
 
Mensajes: 419
Registrado: Mar Ene 09, 2007 5:41 am
Ubicación: QnK

Re: Uomini e cieli (Francesco De Robertis, 1943) VOSI

Notapor nguada » Dom Abr 22, 2012 6:02 am

Muchas gracias Lobo López por habernos acercado esta película
nguada
Aficionad@
Aficionad@
 
Mensajes: 55
Registrado: Mié Jun 11, 2008 3:38 am

Re: Uomini e cieli (Francesco De Robertis, 1943) VOSI

Notapor droid » Dom Abr 22, 2012 7:35 am

No he visto nada de este director, así que habrá que remediarlo.

Muchas gracias, Lobo López.

Saludos. :hola:
Cine-Clásico somos tod@s
Avatar de Usuario
droid
-
 
Mensajes: 5086
Registrado: Jue May 18, 2006 8:19 am
Ubicación: Cercando un centro di gravità permanente

Re: Uomini e cieli (Francesco De Robertis, 1943) VOSI

Notapor JGUTII » Lun Abr 23, 2012 6:55 pm

Muchas gracias, Lobo. C&C :hola:
Avatar de Usuario
JGUTII
Director consagrado
Director consagrado
 
Mensajes: 4755
Registrado: Mié Ago 08, 2007 9:58 pm
Ubicación: Ciudad del Betis


Volver a Largos Clásicos

¿Quién está conectado?

Usuarios navegando por este Foro: No hay usuarios registrados visitando el Foro y 3 invitados