The Jayhawkers! (Melvin Frank, 1959) HDRip Dual

Elinks de largometrajes de cine clásico (Classic feature films) anteriores a 1.959 inclusive (<= 1.959) cuyo metraje exceda los 45 minutos (> 45 min.)

The Jayhawkers! (Melvin Frank, 1959) HDRip Dual

Notapor locotus » Mar Abr 24, 2012 1:05 am

A continuación os presento este Bluray Rip, dual inglés español, sin subtítulos.
El audio español procede de un TVRip que circulaba en la mula.

Imagen

ImagenImagenImagen

Director: Melvin Frank

Writing credits: A.I. Bezzerides written by
Frank Fenton &
Melvin Frank &
Joseph Petracca

Reparto:
Jeff Chandler ... Luke Darcy
Fess Parker ... Cam Bleeker
Nicole Maurey ... Jeanne Dubois
Henry Silva ... Lordan
Herbert Rudley ... Gov. William Clayton
Frank DeKova ... Evans
Don Megowan ... China
Leo Gordon ... Jake Barton
Shari Lee Bernath... Marthe DuBois
Jimmy Carter ... Paul DuBois
Renata Vanni ... Indian Woman
Berel Firestone ... Jayhawker
Al Wyatt Sr. ... Jayhawker (as Allan Wyatt)
Charles Bail ... Jayhawker
Ned Glass ... Storekeeper
Richard Shannon ... Townsman Looking for a Match
Barbara Knudson ... Townswoman
Max Power ... Governor's Aide
Joseph Forte ... Minister (as Joe Forte)
Tony Regan ... Bartender
Howard Joslin ... Officer
John Wiles Rice ... Jayhawker

Runtime: 100 min
Sound Mix: Mono (Westrex Recording System)
Color: Color (Technicolor)
Aspect Ratio: 1.85 : 1

Los rebeldes de Kansas
http://www.imdb.com/title/tt0052941/
Sinopsis:
Cam Beeker escapa de una prisión federal para regresar a su casa en Kansas. Al llegar a lo que fue su rancho, descubre que su mujer ha muerto y las tierras vendidas a una actriz de origen francés, llamada Jeanne Dubois. También se entera de que Luke Darcy es el hombre que está tras la muerte de su esposa y la pérdida de su propiedad. Beeker se une a los Jayhawkerws, una banda dirigida por Darcy, con la intención de vengarse.
Datos:
Código: Seleccionar todo
General
Unique ID                                : 231340760900920154705308393948314068980 (0xAE0A9C20F0EAA5E5B4D05CB19AC7E7F4)
Complete name                            : The Jayhawkers.1959.720p.bluray.x264-rovers.mkv
Format                                   : Matroska
Format version                           : Version 2
File size                                : 4.10 GiB
Duration                                 : 1h 40mn
Overall bit rate                         : 5 817 Kbps
Encoded date                             : UTC 2012-04-23 22:47:35
Writing application                      : mkvmerge v5.4.0 ('Piper') built on Mar 10 2012 13:34:39
Writing library                          : libebml v1.2.3 + libmatroska v1.3.0

Video
ID                                       : 1
Format                                   : AVC
Format/Info                              : Advanced Video Codec
Format profile                           : High@L4.1
Format settings, CABAC                   : Yes
Format settings, ReFrames                : 5 frames
Codec ID                                 : V_MPEG4/ISO/AVC
Duration                                 : 1h 40mn
Bit rate                                 : 5 432 Kbps
Width                                    : 1 280 pixels
Height                                   : 720 pixels
Display aspect ratio                     : 16:9
Frame rate                               : 23.976 fps
Color space                              : YUV
Chroma subsampling                       : 4:2:0
Bit depth                                : 8 bits
Scan type                                : Progressive
Bits/(Pixel*Frame)                       : 0.246
Stream size                              : 3.75 GiB (91%)
Writing library                          : x264 core 122 r2184 5c85e0a
Encoding settings                        : cabac=1 / ref=5 / deblock=1:0:0 / analyse=0x3:0x133 / me=umh / subme=7 / psy=1 / psy_rd=1.00:0.00 / mixed_ref=1 / me_range=16 / chroma_me=1 / trellis=1 / 8x8dct=1 / cqm=0 / deadzone=21,11 / fast_pskip=0 / chroma_qp_offset=-2 / threads=12 / sliced_threads=0 / nr=0 / decimate=1 / interlaced=0 / bluray_compat=0 / constrained_intra=0 / bframes=3 / b_pyramid=2 / b_adapt=1 / b_bias=0 / direct=1 / weightb=1 / open_gop=0 / weightp=2 / keyint=250 / keyint_min=23 / scenecut=40 / intra_refresh=0 / rc_lookahead=40 / rc=2pass / mbtree=1 / bitrate=5432 / ratetol=1.0 / qcomp=0.60 / qpmin=0 / qpmax=69 / qpstep=4 / cplxblur=20.0 / qblur=0.5 / ip_ratio=1.40 / aq=1:1.00
Language                                 : English
Default                                  : Yes
Forced                                   : No

Audio #1
ID                                       : 2
Format                                   : AC-3
Format/Info                              : Audio Coding 3
Format profile                           : Dolby Digital
Mode extension                           : CM (complete main)
Format settings, Endianness              : Big
Codec ID                                 : A_AC3
Duration                                 : 1h 40mn
Bit rate mode                            : Constant
Bit rate                                 : 192 Kbps
Channel(s)                               : 2 channels
Channel positions                        : Front: L R
Sampling rate                            : 48.0 KHz
Bit depth                                : 16 bits
Compression mode                         : Lossy
Stream size                              : 138 MiB (3%)
Language                                 : English
Default                                  : Yes
Forced                                   : No

Audio #2
ID                                       : 3
Format                                   : AC-3
Format/Info                              : Audio Coding 3
Format profile                           : Dolby Digital
Mode extension                           : CM (complete main)
Format settings, Endianness              : Big
Codec ID                                 : A_AC3
Duration                                 : 1h 40mn
Bit rate mode                            : Constant
Bit rate                                 : 192 Kbps
Channel(s)                               : 2 channels
Channel positions                        : Front: L R
Sampling rate                            : 48.0 KHz
Bit depth                                : 16 bits
Compression mode                         : Lossy
Stream size                              : 138 MiB (3%)
Language                                 : Spanish
Default                                  : No
Forced                                   : No


Elink:
eD2K link The Jayhawkers.1959.720p.bluray.x264-rovers.mkv [4.10 Gb] 
¿Zorrilla?: “Los muertos que vos matáis gozan de buena salud”.
Avatar de Usuario
locotus
Director consagrado
Director consagrado
 
Mensajes: 1350
Registrado: Mié Feb 15, 2006 3:14 pm
Ubicación: Adelante... Houston

Re: The Jayhawkers (Melvin Frank, 1959, HDRip Dual

Notapor heinlein » Mar Abr 24, 2012 2:50 am

Muchas gracias locotus.
Cine-clásico secuestrado: TOTEM, pásale de una vez la gestión de la web a droid y a chuschao
Avatar de Usuario
heinlein
Director consagrado
Director consagrado
 
Mensajes: 3258
Registrado: Dom Oct 09, 2005 1:03 am

Re: The Jayhawkers (Melvin Frank, 1959, HDRip Dual

Notapor dilsondefreitas » Mar Abr 24, 2012 3:49 am

ok seja bem vindo obrigado
dilsondefreitas
Cinéfil@
Cinéfil@
 
Mensajes: 98
Registrado: Mar Mar 01, 2011 8:00 pm

Re: The Jayhawkers! (Melvin Frank, 1959) HDRip Dual

Notapor PEPEBELLUM » Mar Abr 24, 2012 12:35 pm

Pinchado, gracias.
Hay hombres que luchan un día y son buenos. Hay otros que luchan un año y son mejores. Hay otros que luchan muchos años y son muy buenos. Pero hay quienes luchan toda la vida, esos son imprescindibles
Bertolt Brecht
PEPEBELLUM
Director consagrado
Director consagrado
 
Mensajes: 1329
Registrado: Mié Ene 21, 2009 11:54 pm

Re: The Jayhawkers! (Melvin Frank, 1959) HDRip Dual

Notapor iberosky » Mar Abr 24, 2012 6:26 pm

Vamos a por ella, muchas gracias locotus :hola:
Avatar de Usuario
iberosky
Guionista colosal
Guionista colosal
 
Mensajes: 528
Registrado: Jue Feb 04, 2010 3:54 pm

Re: The Jayhawkers! (Melvin Frank, 1959) HDRip Dual

Notapor sgtabbeyroad » Mar Abr 24, 2012 7:46 pm

Pincho. Gracias. :hola: :hola:
Avatar de Usuario
sgtabbeyroad
Extra de cine
Extra de cine
 
Mensajes: 112
Registrado: Dom Oct 12, 2008 4:40 pm
Ubicación: En FDL... en Leyenda.

Re: The Jayhawkers! (Melvin Frank, 1959) HDRip Dual

Notapor joeraymond » Mié Abr 25, 2012 4:34 pm

Muchas gracias.
Yo también soy Cine-Clásico
Avatar de Usuario
joeraymond
Director consagrado
Director consagrado
 
Mensajes: 2727
Registrado: Mié May 10, 2006 2:19 pm


Volver a Largos Clásicos

¿Quién está conectado?

Usuarios navegando por este Foro: Majestic-12 [Bot] y 2 invitados