Fantasmi del mare (De Robertis, Cottafavi, 1948) DVDRip VO

Elinks de largometrajes de cine clásico (Classic feature films) anteriores a 1.959 inclusive (<= 1.959) cuyo metraje exceda los 45 minutos (> 45 min.)

Fantasmi del mare (De Robertis, Cottafavi, 1948) DVDRip VO

Notapor Lobo López » Mié Abr 25, 2012 2:22 am

Fantasmi del mare (1948)
ImagenFantasmi del mare
Director: Francesco De Robertis & Vittorio Cottafavi
Guion: Nicola Morabito, Francesco De Robertis, Giorgio Pastina
Productor: Cenro Cinematografiche Italiano
Reparto: Raf Pindi, Michele Morabito, Gaby Sylvia, Anna Arena, Umberto Raho, Renato De Carmine, Raoul Grassilli, Umberto Orsini, Nino Milano.
Duración: 99 min.
L’ufficiale della Marina Militare, Capo Arena, già comandante di una nave in disarmo, ricostruisce l’ultima fase della seconda guerra mondiale e rievoca un episodio dell’8 settembre 1943. Al comando della nave, sulla quale è imbarcato il figlio, prende una drammatica decisione che riguarda le sorti dell’equipaggio.
Código: Seleccionar todo
Format                           : AVI
Format/Info                      : Audio Video Interleave
File size                        : 700 MiB
Duration                         : 1h 38mn
Overall bit rate                 : 990 Kbps

Video
ID                               : 0
Format                           : MPEG-4 Visual
Format profile                   : Simple@L3
Format settings, BVOP            : No
Format settings, QPel            : No
Format settings, GMC             : No warppoints
Format settings, Matrix          : Default (H.263)
Codec ID                         : XVID
Codec ID/Hint                    : XviD
Duration                         : 1h 38mn
Bit rate                         : 849 Kbps
Width                            : 720 pixels
Height                           : 560 pixels
Display aspect ratio             : 1.286
Frame rate                       : 25.000 fps
Color space                      : YUV
Chroma subsampling               : 4:2:0
Bit depth                        : 8 bits
Scan type                        : Progressive
Bits/(Pixel*Frame)               : 0.084
Stream size                      : 600 MiB (86%)
Writing library                  : XviD 1.1.2 (UTC 2006-11-01)

Audio
ID                               : 1
Format                           : MPEG Audio
Format version                   : Version 1
Format profile                   : Layer 3
Mode                             : Joint stereo
Mode extension                   : MS Stereo
Codec ID                         : 55
Codec ID/Hint                    : MP3
Duration                         : 1h 38mn
Bit rate mode                    : Constant
Bit rate                         : 128 Kbps
Channel(s)                       : 2 channels
Sampling rate                    : 48.0 KHz
Video delay                      : 24ms
Stream size                      : 90.4 MiB (13%)
Alignment                        : Split accross interleaves
Interleave, duration             : 24 ms (0.60 video frame)
DVDRip VO:
:flecha: eD2K link Fantasmi del mare -Francesco De Robertis- Raf Tindi, Gaby Silvia, Nicola Morabito...40;1948).avi [699.56 Mb] 


Imagen Imagen Imagen

Imagen Imagen Imagen

Imagen Imagen Imagen

Imagen Imagen Imagen


Continuamos con los filmes bélicos pre-neorrealistas de De Robertis, en este caso ayudado de Vittorio Cottafavi. La copia la encontré en el emule y subtítulos no he visto. Esta película la vi en la lista "2011 World Poll" de Olaf Möller (http://sensesofcinema.com/2012/feature- ... d-poll/#50).

Saludos
:hola:
Apoyo para que Chuschao y Droid sean los NUEVOS Websmaters


http://www.filmaffinity.com/es/userrati ... _id=570571
Avatar de Usuario
Lobo López
Intérprete Starsystem
Intérprete Starsystem
 
Mensajes: 419
Registrado: Mar Ene 09, 2007 5:41 am
Ubicación: QnK

Re: Fantasmi del mare (De Robertis, Cottafavi, 1948) DVDRip

Notapor droid » Mié Abr 25, 2012 6:50 am

Muchas gracias, Lobo López . :good:

Pinchado queda.

Saludos. :hola:
Cine-Clásico somos tod@s
Avatar de Usuario
droid
-
 
Mensajes: 5086
Registrado: Jue May 18, 2006 8:19 am
Ubicación: Cercando un centro di gravità permanente

Re: Fantasmi del mare (De Robertis, Cottafavi, 1948) DVDRip

Notapor gatatitania » Mié Abr 25, 2012 10:48 am

¡Gracias, Lobo! :-D :-D :-D
Cine-clásico ha sido secuestrado: TOTEM, da la cara. Pásale de una vez la gestión de la web a droid y a chuschao

Avatar de Usuario
gatatitania
Director consagrado
Director consagrado
 
Mensajes: 3565
Registrado: Jue Dic 11, 2008 3:07 am
Ubicación: gatatitania es un planeta felino en la constelación de Oberón

Re: Fantasmi del mare (De Robertis, Cottafavi, 1948) DVDRip

Notapor orsonhitchcock » Mié Abr 25, 2012 4:26 pm

Gracias Lobo.
Avatar de Usuario
orsonhitchcock
Haciendo méritos
Haciendo méritos
 
Mensajes: 72
Registrado: Dom Feb 15, 2009 10:42 pm

Re: Fantasmi del mare (De Robertis, Cottafavi, 1948) DVDRip

Notapor JGUTII » Jue Abr 26, 2012 11:13 pm

Gracias, Lobo, por enésima vez. C&C :hola:
Avatar de Usuario
JGUTII
Director consagrado
Director consagrado
 
Mensajes: 4755
Registrado: Mié Ago 08, 2007 9:58 pm
Ubicación: Ciudad del Betis

Re: Fantasmi del mare (De Robertis, Cottafavi, 1948) DVDRip

Notapor nguada » Vie Abr 27, 2012 1:43 am

¡Gracias Lobo!
nguada
Aficionad@
Aficionad@
 
Mensajes: 55
Registrado: Mié Jun 11, 2008 3:38 am


Volver a Largos Clásicos

¿Quién está conectado?

Usuarios navegando por este Foro: No hay usuarios registrados visitando el Foro y 3 invitados

cron