La nave delle donne maledette (Matarazzo, 1953) TVRip VO/VF

Elinks de largometrajes de cine clásico (Classic feature films) anteriores a 1.959 inclusive (<= 1.959) cuyo metraje exceda los 45 minutos (> 45 min.)

La nave delle donne maledette (Matarazzo, 1953) TVRip VO/VF

Notapor Lobo López » Jue Abr 26, 2012 3:19 pm

Índice de Ripeos: -
TVRip Versión Original, publicado por Lobo López
Versión en Francés, publicado por Marcos

*Nota: Tenga en cuenta la calidad de cada ripeo para hacer la mejor elección. Haga click aquí para más información.


La nave delle donne maledette (1953)
ImagenLa nave de las mujeres malditas
Mercado de mujeres
Director: Raffaello Matarazzo
Guion: Aldo De Benedetti, Ennio De Concini, Raffaello Matarazzo, Léon Gózlan (novela "Histoire de 130 femmes")
Productor: Excelsa Film
Reparto: Kerima, May Britt, Ettore Manni, Tania Weber, Gualtiero Tumiati, Olga Solbelli, Luigi Tosi, Ignazio Balsamo, Anna Arena.
Duración: 93 min.
A Consuelo (May Britt) le suceden tantos infortunios en el nombre de la virtud como a una heroína de Sade: su bondad y el engaño de quienes la rodean la incita a confesar un delito que no ha cometido, por el cual es condenada a diez años de trabajos forzados en una colonia penal, a pesar de su ya inútil proclama de inocencia al oír el veredicto del jurado; en el galeón que la lleva a ultramar con otras presas, todas encerradas en la bodega, sufre privaciones y humillaciones, cae enferma de fiebres y es azotada… – José María Latorre
Código: Seleccionar todo
Format                           : AVI
Format/Info                      : Audio Video Interleave
File size                        : 892 MiB
Duration                         : 1h 33mn
Overall bit rate                 : 1 336 Kbps
Writing library                  : VirtualDub build 12667/release

Video
ID                               : 0
Format                           : MPEG-4 Visual
Format settings, BVOP            : Yes
Format settings, QPel            : No
Format settings, GMC             : No warppoints
Format settings, Matrix          : Default (H.263)
Codec ID                         : DX50
Codec ID/Hint                    : DivX 5
Duration                         : 1h 33mn
Bit rate                         : 1 198 Kbps
Width                            : 560 pixels
Height                           : 368 pixels
Display aspect ratio             : 3:2
Frame rate                       : 25.000 fps
Color space                      : YUV
Chroma subsampling               : 4:2:0
Bit depth                        : 8 bits
Scan type                        : Progressive
Bits/(Pixel*Frame)               : 0.233
Stream size                      : 800 MiB (90%)
Writing library                  : DivX 5.0.5 (UTC 2003-04-24)

Audio
ID                               : 1
Format                           : MPEG Audio
Format version                   : Version 1
Format profile                   : Layer 3
Mode                             : Joint stereo
Mode extension                   : MS Stereo
Codec ID                         : 55
Codec ID/Hint                    : MP3
Duration                         : 1h 33mn
Bit rate mode                    : Constant
Bit rate                         : 128 Kbps
Channel(s)                       : 2 channels
Sampling rate                    : 48.0 KHz
Stream size                      : 85.5 MiB (10%)
Alignment                        : Split accross interleaves
Interleave, duration             : 40 ms (1.00 video frame)
Interleave, preload duration     : 450 ms
TVRip VO:
:flecha: eD2K link Raffaello Matarazzo - La nave delle donne maledette (1954) [VO] [B&W No Gevacolor].avi [892.18 Mb] 


Imagen Imagen Imagen

Imagen Imagen Imagen

Imagen Imagen Imagen

Imagen Imagen Imagen


Hoy os presento un melodrama de Matarazzo que nos faltaba y que he encontrado en el emule. La copia es floja y se entrelaza en bastantes ocasiones. Además está en blanco y negro, estando la original en color (Gevacolor). No he encontrado subtítulos y no sé si alguna vez se emitió en televisión, por lo del audio. Hasta que aparezca una copia en mejores condiciones habrá que conformarse con ésta.

Comentarios:
- “La nave delle donne maledette es un film sadiano y, como tal, un cuento moral apoyado sobre el exceso, que tiene además el aire de una ceremonia religiosa, incluyendo la noción del sacrificio cruento. […] fue un film mítico entre los críticos de “Positif” y “Presence du cinéma”. Lo merece.” (JOSÉ MARÍA LATORRE).

- “While the Ferroni Brigade – still somewhat shell-shocked from last year’s God-awful-quality video screening of Matarazzo’s mad masterpiece La nave delle donne maledette (1954) at the Venice Film Festival retrospective – eagerly awaits a serious showcase of this top-grade auteur, some solace could be found in a wave of Italian Raffaello Matarazzo releases this year.” (THE FERRONI BRIGADE) (http://www.bfi.org.uk/sightandsound/pol ... hp#ferroni)

- “Una nobildonna commette un infanticidio, ma del crimine viene accusata un’altra ragazza che viene deportata, con altre condannate, nelle colonie del Nuovo Mondo. Sulla nave un avvocato s’innamora della ragazza e, dopo un ammutinamento delle donne, riesce a dimostrarne l’innocenza. «“Classico maudit” della cinefilia internazionale, il film è rimasto a lungo invisibile nella sua versione a colori. Complice un set fiammeggiante – una nave di deportate in rivolta – Matarazzo spinge all’eccesso il suo cinema di sentimenti in tempesta, cui questa volta corrisponde un vero uragano che si abbatte sulla “nave del peccato” come il giudizio di Dio. Sensualità e ingiustizia sociale, passioni disordinate (qui tra l’altro si mostra la cosiddetta “versione francese”, priva di tagli di censura perché destinata al mercato straniero) e complesso di colpa che preannuncia la nemesi: tutto deborda sullo schermo trasformandosi in kitsch sublime» (Sergio Toffetti). (http://www.dass.uniroma1.it/pdf/comunic ... trevi9.pdf)

Saludos.
:hola:
Apoyo para que Chuschao y Droid sean los NUEVOS Websmaters


http://www.filmaffinity.com/es/userrati ... _id=570571
Avatar de Usuario
Lobo López
Intérprete Starsystem
Intérprete Starsystem
 
Mensajes: 419
Registrado: Mar Ene 09, 2007 5:41 am
Ubicación: QnK

Re: La nave delle donne maledette (R. Matarazzo, 1953) TVRip

Notapor gatatitania » Jue Abr 26, 2012 4:28 pm

¡Gracias, lobo! :-D :-D :-D
Cine-clásico ha sido secuestrado: TOTEM, da la cara. Pásale de una vez la gestión de la web a droid y a chuschao

Avatar de Usuario
gatatitania
Director consagrado
Director consagrado
 
Mensajes: 3565
Registrado: Jue Dic 11, 2008 3:07 am
Ubicación: gatatitania es un planeta felino en la constelación de Oberón

Re: La nave delle donne maledette (R. Matarazzo, 1953) TVRip

Notapor James Mason » Jue Abr 26, 2012 4:30 pm

A estas alturas, es casi una película medio fetiche, medio maltida para algunos cinéfilos que hemos oído hablar de ella.
Gracias, compañero!
Quizás algún día aparezca otra copia en condiciones, subtítulos... Mientras tanto, vamos con ella!
Saludos :hola:
Avatar de Usuario
James Mason
Director consagrado
Director consagrado
 
Mensajes: 3591
Registrado: Sab Dic 16, 2006 1:28 am

Re: La nave delle donne maledette (R. Matarazzo, 1953) TVRip

Notapor MARCOS » Jue Abr 26, 2012 7:28 pm

Es un film estupendo. Tengo una buena copia en color pero con los títulos de credito y el audio en francés. Interesa?
Avatar de Usuario
MARCOS
Director consagrado
Director consagrado
 
Mensajes: 1118
Registrado: Mié Mar 19, 2008 1:19 am
Ubicación: Ribadavia

Re: La nave delle donne maledette (R. Matarazzo, 1953) TVRip

Notapor droid » Jue Abr 26, 2012 8:05 pm

Gracias, Lobo. :good:

Creo recordar que en una ocasión ya la bajé de emule, pero al ver la calidad que tenía (y esperando que saliese en breve alguna otra copia mejor) la borré.

MARCOS escribió:Es un film estupendo. Tengo una buena copia en color pero con los títulos de credito y el audio en francés. Interesa?


Se puede tratar de sincronizar el audio italiano de la copia de emule a la copia francesa.

Saludos. :hola:

EDITO: Por cierto, según leo en el texto italiano la versión francesa es integra, y al parecer, la italiana fue censurada.
Cine-Clásico somos tod@s
Avatar de Usuario
droid
-
 
Mensajes: 5086
Registrado: Jue May 18, 2006 8:19 am
Ubicación: Cercando un centro di gravità permanente

Re: La nave delle donne maledette (R. Matarazzo, 1953) TVRip

Notapor vincente » Vie Abr 27, 2012 12:42 am

Interesa aunque la copia sea en francés, ya que por las noticias que tengo el tratamiento del color es muy importante en esta película
vincente
Guionista colosal
Guionista colosal
 
Mensajes: 511
Registrado: Dom Jul 01, 2007 9:51 pm

Re: La nave delle donne maledette (R. Matarazzo, 1953) TVRip

Notapor Lobo López » Vie Abr 27, 2012 1:59 am

Todo lo que mejore esta copia interesa, MARCOS. :good:
Apoyo para que Chuschao y Droid sean los NUEVOS Websmaters


http://www.filmaffinity.com/es/userrati ... _id=570571
Avatar de Usuario
Lobo López
Intérprete Starsystem
Intérprete Starsystem
 
Mensajes: 419
Registrado: Mar Ene 09, 2007 5:41 am
Ubicación: QnK

Re: La nave delle donne maledette (R. Matarazzo, 1953) TVRip

Notapor aguadulce » Vie Abr 27, 2012 3:14 am

MARCOS escribió:Es un film estupendo. Tengo una buena copia en color pero con los títulos de credito y el audio en francés. Interesa?

Interesa muchisimo.
De cualquier manera muchisimas gracias Lobo Lopez
Avatar de Usuario
aguadulce
Crítico de prestigio
Crítico de prestigio
 
Mensajes: 234
Registrado: Dom Ago 24, 2008 6:49 pm

Re: La nave delle donne maledette (R. Matarazzo, 1953) TVRip

Notapor JGUTII » Vie Abr 27, 2012 4:44 pm

aguadulce escribió:
MARCOS escribió:Es un film estupendo. Tengo una buena copia en color pero con los títulos de credito y el audio en francés. Interesa?

Interesa muchisimo.
De cualquier manera muchisimas gracias Lobo Lopez

Más claro, agua...dulce :good: :hola:
Avatar de Usuario
JGUTII
Director consagrado
Director consagrado
 
Mensajes: 4755
Registrado: Mié Ago 08, 2007 9:58 pm
Ubicación: Ciudad del Betis

Re: La nave delle donne maledette (R. Matarazzo, 1953) TVRip

Notapor aguadulce » Sab Abr 28, 2012 12:31 am

JGUTII escribió:
aguadulce escribió:
MARCOS escribió:Es un film estupendo. Tengo una buena copia en color pero con los títulos de credito y el audio en francés. Interesa?

Interesa muchisimo.
De cualquier manera muchisimas gracias Lobo Lopez

Más claro, agua...dulce :good: :hola:


No me provoques que te hago trabajar otra vez a destajo. :hola:
Avatar de Usuario
aguadulce
Crítico de prestigio
Crítico de prestigio
 
Mensajes: 234
Registrado: Dom Ago 24, 2008 6:49 pm

Re: La nave delle donne maledette (R. Matarazzo, 1953) TVRip

Notapor JGUTII » Sab Abr 28, 2012 7:21 am

aguadulce escribió:No me provoques que te hago trabajar otra vez a destajo.

Cuando tú quieras, amigo. :good: ;-) :hola:
Avatar de Usuario
JGUTII
Director consagrado
Director consagrado
 
Mensajes: 4755
Registrado: Mié Ago 08, 2007 9:58 pm
Ubicación: Ciudad del Betis

Re: La nave delle donne maledette (R. Matarazzo, 1953) TVRip

Notapor LuisB » Sab Abr 28, 2012 8:11 am

No diré que el mejor - ese puesto yo se lo reservo a "Catene" - pero evidentemente uno de los grandes melodramas de Matarazzo. Yo la he visto en italiano sin srt. alguno y se sigue bastante bien. Gracias a Lobo López por traerla aquí y un cordial saludo a todos.
Avatar de Usuario
LuisB
Gran Productor
Gran Productor
 
Mensajes: 630
Registrado: Jue Feb 21, 2008 7:32 pm

Re: La nave delle donne maledette (R. Matarazzo, 1953) TVRip

Notapor MARCOS » Sab Abr 28, 2012 2:16 pm

Empiezo con el avi. Espero subirlo mañana :hola:
Avatar de Usuario
MARCOS
Director consagrado
Director consagrado
 
Mensajes: 1118
Registrado: Mié Mar 19, 2008 1:19 am
Ubicación: Ribadavia

Re: La nave delle donne maledette (R. Matarazzo, 1953) TVRip

Notapor MARCOS » Dom Abr 29, 2012 8:56 am

Siempre me ha gustado poder ayudar a la web en lo posible. Subo mi copia francesa, por mis informaciones, es la única que existe que conserva el color. Las copias conservadas en Italia están en blanco y negro. Pasa parecido con la Maddalena (1954) de Genina. Mi copia, la verdad es que se conserva bastante bien. El tratamiento del color de Matarazzo es bellisimo. La nave... sin lugar a dudas es uno de sus más importantes films. Lo que pasa es que no circulan copias en condiciones. Otra maravilla invisible del maestro es Guai ai vinti (1954) dramón ambientado en la primera guerra mundial rodado con gran talento y bastantes medios economicos. Una Vergüenza que ni siquiera tenga votación en IMDB. :mrgreen:

Mercado de mujeres
La nave de las mujeres malditas

http://akas.imdb.com/title/tt0047272/

eD2K link La nave delle donne maledette (R. Matarazzo, 1953).avi [1.12 Gb] 

DATOS TÉCNICOS:
Código: Seleccionar todo
General
Complete name                    : La nave delle donne maledette (R. Matarazzo, 1953).avi
Format                           : AVI
Format/Info                      : Audio Video Interleave
File size                        : 1.12 GiB
Duration                         : 1h 35mn
Overall bit rate                 : 1 691 Kbps
Writing application              : MEncoder dev-SVN-r23673-4.2.0
Writing library                  : MPlayer

Video
ID                               : 0
Format                           : MPEG-4 Visual
Format profile                   : Advanced Simple@L5
Format settings, BVOP            : 2
Format settings, QPel            : No
Format settings, GMC             : No warppoints
Format settings, Matrix          : Default (H.263)
Codec ID                         : XVID
Codec ID/Hint                    : XviD
Duration                         : 1h 35mn
Bit rate                         : 1 550 Kbps
Width                            : 704 pixels
Height                           : 544 pixels
Display aspect ratio             : 1.294
Frame rate                       : 25.000 fps
Color space                      : YUV
Chroma subsampling               : 4:2:0
Bit depth                        : 8 bits
Scan type                        : Progressive
Compression mode                 : Lossy
Bits/(Pixel*Frame)               : 0.162
Stream size                      : 1.03 GiB (92%)
Writing library                  : XviD 1.2.0.dev47 (UTC 2006-11-01)

Audio
ID                               : 1
Format                           : MPEG Audio
Format version                   : Version 1
Format profile                   : Layer 3
Mode                             : Joint stereo
Codec ID                         : 55
Codec ID/Hint                    : MP3
Duration                         : 1h 35mn
Bit rate mode                    : Constant
Bit rate                         : 128 Kbps
Channel(s)                       : 2 channels
Sampling rate                    : 48.0 KHz
Compression mode                 : Lossy
Delay relative to video          : 40ms
Stream size                      : 87.0 MiB (8%)
Alignment                        : Aligned on interleaves
Interleave, duration             : 24 ms (0.60 video frame)
Interleave, preload duration     : 504 ms

ImagenImagen
ImagenImagenImagen
Avatar de Usuario
MARCOS
Director consagrado
Director consagrado
 
Mensajes: 1118
Registrado: Mié Mar 19, 2008 1:19 am
Ubicación: Ribadavia

Re: La nave delle donne maledette (R. Matarazzo, 1953) TVRip

Notapor droid » Dom Abr 29, 2012 9:06 am

Muchas gracias, Marcos. :good:

En cuanto la descargue, me pongo con la sincro del audio italiano... y si se crea un grupo (ya que mi italiano de oídas es limitado) me apunto a crear también el subtítulo.

Saludos. :hola:
Cine-Clásico somos tod@s
Avatar de Usuario
droid
-
 
Mensajes: 5086
Registrado: Jue May 18, 2006 8:19 am
Ubicación: Cercando un centro di gravità permanente

Re: La nave delle donne maledette (R. Matarazzo, 1953) TVRip

Notapor MARCOS » Dom Abr 29, 2012 9:16 am

droid escribió:Muchas gracias, Marcos. :good:

En cuanto la descargue, me pongo con la sincro del audio italiano... y si se crea un grupo (ya que mi italiano de oídas es limitado) me apunto a crear también el subtítulo.

Saludos. :hola:

Supongo que será muy compleja esta sincronización. Gracias a ti por el trabajo. Estoy mal de tiempo, por lo que no me puedo apuntar a nada hasta que pasen unos meses y llegue el verano. tengo pendiente Tormento (no me olvido) ;-)
Avatar de Usuario
MARCOS
Director consagrado
Director consagrado
 
Mensajes: 1118
Registrado: Mié Mar 19, 2008 1:19 am
Ubicación: Ribadavia

Re: La nave delle donne maledette (Matarazzo, 1953) TVRip VO

Notapor Lobo López » Dom Abr 29, 2012 10:45 am

Muchísimas gracias, MARCOS :bravo:
Apoyo para que Chuschao y Droid sean los NUEVOS Websmaters


http://www.filmaffinity.com/es/userrati ... _id=570571
Avatar de Usuario
Lobo López
Intérprete Starsystem
Intérprete Starsystem
 
Mensajes: 419
Registrado: Mar Ene 09, 2007 5:41 am
Ubicación: QnK

Re: La nave delle donne maledette (Matarazzo, 1953) TVRip VO

Notapor JGUTII » Dom Abr 29, 2012 10:49 am

Lobo López escribió:Muchísimas gracias, MARCOS :bravo:
:good: :hola:
Avatar de Usuario
JGUTII
Director consagrado
Director consagrado
 
Mensajes: 4755
Registrado: Mié Ago 08, 2007 9:58 pm
Ubicación: Ciudad del Betis

Siguiente

Volver a Largos Clásicos

¿Quién está conectado?

Usuarios navegando por este Foro: No hay usuarios registrados visitando el Foro y 2 invitados