Totò sceicco (Mario Mattoli, 1950) DVDRip VOSIt

Elinks de largometrajes de cine clásico (Classic feature films) anteriores a 1.959 inclusive (<= 1.959) cuyo metraje exceda los 45 minutos (> 45 min.)

Totò sceicco (Mario Mattoli, 1950) DVDRip VOSIt

Notapor Vozidar » Jue May 03, 2012 7:41 pm

Imagen

Cartel argentino:
Imagen

IMDB: http://www.imdb.com/title/tt0043059/fullcredits#cast
FILMAFFINITY: http://www.filmaffinity.com/es/film582909.html

DIRECTOR
Mario Mattoli

GUIÓN
Agenore Incrocci, Marcello Marchesi, Vittorio Metz, Furio Scarpelli

MÚSICA
Armando Fragna, Felice Montagnini

FOTOGRAFÍA
Mario Albertelli (B&W)

REPARTO
Totò ... Antonio Sapore, el mayordomo
Tamara Lees ... Antinea, la reina de Atlántida
Laura Gore ... Lulù
Lauretta De Lauri ... Fatma
Ada Dondini ... La marquesa
Kiki Urbani ... La bailarina árabe
Aroldo Tieri ... El marqués Gastone
Cesare Polacco ... Mohamed
Arnoldo Foà ... El loco
Mario Castellani ... Coronel de los rebeldes

PRODUCTORA Manenti Film Sp.A.
GÉNERO Comedia
SINOPSIS Antonio Sapore trabaja de mayordomo y cree que es un trabajo tranquilo y sin preocupaciones. Pero cuando su jefe, el marqués Gastone, se enrola en la Legión Extranjera, Antonio es enviado por la marquesa para que recupere a su hijo. Pero un error hace que Antonio no acabe en la legión, sino enrolado entre los rebeldes e incluso se cambia por el hijo del jefe. Comienza así para él una serie de aventuras que le harán arriesgar la vida entre legionarios, rebeldes, árabes e incluso los habitantes de la antigua Atlántida.

La fórmula más en voga de los últimos “Totò” es la parodia de cualquier cosa que se haya ya ampliamente tratado en el cine, teatro o literatura. Esta vez el objeto de las burlas es el mito de la fabulosa Atlántida, repescado en parte entre las páginas de la célebre novela y las secuencias del aun más célebre film de Pabst. Por lo general no soy muy indulgente con este género de parodia (y no creo, honestamente, que deba serlo nunca, ni en homenaje a un malinterpretado respeto por la opinión del público) pero hoy, no me cuesta admitir que la película - a pesar de la facilidad de sus situaciones cómicas, la obviedad un poco mecánica de los equívocos del cual la situación toma las riendas y el grueso espíritu de farsa que generalmente lo impregna sin un ápice de fino humor – ha llevado a puerto con una cierta amabilidad sus intenciones satíricas, amena en la maliciosa evocación de la Legión Extranjera, gustosa en la descripción, mitad cómica, mitad trágica, de la misteriosa Atlántida". Por Gian Luigi Rondi


Código: Seleccionar todo
General
Complete name                            : DvdRip-Toto'.Sceicco.avi
Format                                   : AVI
Format/Info                              : Audio Video Interleave
File size                                : 692 MiB
Duration                                 : 1h 32mn
Overall bit rate                         : 1 043 Kbps

Video
ID                                       : 0
Format                                   : MPEG-4 Visual
Format settings, BVOP                    : Yes
Format settings, QPel                    : No
Format settings, GMC                     : No warppoints
Format settings, Matrix                  : Default (H.263)
Codec ID                                 : DX50
Codec ID/Hint                            : DivX 5
Duration                                 : 1h 32mn
Bit rate                                 : 902 Kbps
Width                                    : 640 pixels
Height                                   : 480 pixels
Display aspect ratio                     : 4:3
Frame rate                               : 25.000 fps
Color space                              : YUV
Chroma subsampling                       : 4:2:0
Bit depth                                : 8 bits
Scan type                                : Progressive
Compression mode                         : Lossy
Bits/(Pixel*Frame)                       : 0.117
Stream size                              : 598 MiB (86%)
Title                                    : DVD2VIDEO
Writing library                          : DivX 5.0.5 (UTC 2003-04-24)

Audio
ID                                       : 1
Format                                   : MPEG Audio
Format version                           : Version 1
Format profile                           : Layer 3
Mode                                     : Joint stereo
Mode extension                           : MS Stereo
Codec ID                                 : 55
Codec ID/Hint                            : MP3
Duration                                 : 1h 32mn
Bit rate mode                            : Constant
Bit rate                                 : 128 Kbps
Channel(s)                               : 2 channels
Sampling rate                            : 48.0 KHz
Compression mode                         : Lossy
Stream size                              : 84.9 MiB (12%)
Alignment                                : Split accross interleaves
Interleave, duration                     : 24 ms (0.60 video frame)
Interleave, preload duration             : 67 ms
Title                                    : DVD2AUDIO00


Imagen
Imagen

eD2K link Totò - Sceicco.avi [691.85 Mb] 

Subtítulos en italiano:
http://www.opensubtitles.org/en/subtitles/4538517/-it
Última edición por Vozidar el Jue May 03, 2012 8:38 pm, editado 3 veces en total
Vozidar
Intérprete Starsystem
Intérprete Starsystem
 
Mensajes: 491
Registrado: Lun Abr 27, 2009 9:26 pm

Re: Totò sceicco (Mario Mattoli, 1950) DVDRip VOSIt

Notapor droid » Jue May 03, 2012 8:19 pm

Vamos a por ella.

Gracias, Vozidar.

Saludos. :hola:
Cine-Clásico somos tod@s
Avatar de Usuario
droid
-
 
Mensajes: 5086
Registrado: Jue May 18, 2006 8:19 am
Ubicación: Cercando un centro di gravità permanente

Re: Totò sceicco (Mario Mattoli, 1950) DVDRip VOSIt

Notapor joeraymond » Jue May 03, 2012 9:45 pm

Muchas gracias, Vozidar.
Yo también soy Cine-Clásico
Avatar de Usuario
joeraymond
Director consagrado
Director consagrado
 
Mensajes: 2727
Registrado: Mié May 10, 2006 2:19 pm

Re: Totò sceicco (Mario Mattoli, 1950) DVDRip VOSIt

Notapor nguada » Vie May 04, 2012 2:05 am

Muchas gracias Vozidar, Tòto es un maestro
nguada
Aficionad@
Aficionad@
 
Mensajes: 55
Registrado: Mié Jun 11, 2008 3:38 am

Re: Totò sceicco (Mario Mattoli, 1950) DVDRip VOSIt

Notapor JGUTII » Dom May 06, 2012 8:15 am

Muchas gracias, Vozidar. C&C :hola:
Avatar de Usuario
JGUTII
Director consagrado
Director consagrado
 
Mensajes: 4755
Registrado: Mié Ago 08, 2007 9:58 pm
Ubicación: Ciudad del Betis


Volver a Largos Clásicos

¿Quién está conectado?

Usuarios navegando por este Foro: No hay usuarios registrados visitando el Foro y 3 invitados