Il ratto delle sabine (Mario Bonnard, 1945) DVDRip VOSE

Elinks de largometrajes de cine clásico (Classic feature films) anteriores a 1.959 inclusive (<= 1.959) cuyo metraje exceda los 45 minutos (> 45 min.)

Il ratto delle sabine (Mario Bonnard, 1945) DVDRip VOSE

Notapor Vozidar » Vie May 04, 2012 7:58 am

Imagen
Imagen Imagen

IMDB: http://www.filmaffinity.com/es/film542961.html
FILMAFFINITY: http://www.imdb.com/title/tt0038016/

DIRECTOR
Mario Bonnard

GUIÓN
Mario Amendola, Mario Bonnard, Giorgio Moser

MÚSICA
Cesare A. Bixio, Giulio Bonnard

FOTOGRAFÍA
Giuseppe La Torre (B&W)

REPARTO
Totò ... Aristide Tromboni
Carlo Campanini ... Maestro Ernesto Molmenti
Clelia Matania ... Rosina
Laura Gore ... Paolina
Olga Solbelli ... Matilde
Luisa Alliani ... Ermenegilda
Lia Corelli ... Mariannina
Fosca Spadaro ... La hija de Tancredi
Aldo Silvani ... Tancredi
Mario Pisu ... Alberto Randoni
Giuseppe Rinaldi ... Emilio
Claudio Ermelli ... Germani
Mario Castellani ... El proprietario del teatro

PRODUCTORA Capitani Film
GÉNERO Comedia / Teatro
SINOPSIS Ernesto es el maestro del pueblo, casado con una esposa dominante. Su pasión es el teatro y ha escrito un drama en verso titulado "El rapto de las Sabinas". Por desgracia solo tiene una admiradora, la criada Rosina. Cuando la compañía teatral del profesor Tromboni llega al pueblo, Ernesto decide dejarles representar su obra, pero de forma anónima. Cuando llega el día el teatro está tristemente vacío. Pero cuando se comienza a saber que el autor es el maestro...
CURIOSIDADES
Basándose en la comedia 'Der Raub der Sabinerinnen' de Franz y Paul von Schönthan, Mario Bonnard (guionista y director) y Mario Amendola (guionista) realizan esta película, rodada en el otoño del 45 en los estudios Capitani en Via degli Avignonesi en Roma, dentro de los mismos escenarios en los que Rossellini había rodado "Roma città aperta", poco antes.
La versión original de la película ya no exsite. Rodada con prisas y con escasos medios en un periodo dramático para Italia, la película fue luego remontada, cambiando el negativo original, para preparar una nueva edición estrenada en el año 50 con el título de "Il professor Trombone", la única existente hoy.

Código: Seleccionar todo
General
Complete name                            : DvdRip-Il.Ratto.delle.Sabine.avi
Format                                   : AVI
Format/Info                              : Audio Video Interleave
File size                                : 690 MiB
Duration                                 : 1h 13mn
Overall bit rate                         : 1 312 Kbps

Video
ID                                       : 0
Format                                   : MPEG-4 Visual
Format settings, BVOP                    : Yes
Format settings, QPel                    : No
Format settings, GMC                     : No warppoints
Format settings, Matrix                  : Default (H.263)
Codec ID                                 : DX50
Codec ID/Hint                            : DivX 5
Duration                                 : 1h 13mn
Bit rate                                 : 1 203 Kbps
Width                                    : 720 pixels
Height                                   : 528 pixels
Display aspect ratio                     : 4:3
Frame rate                               : 25.000 fps
Color space                              : YUV
Chroma subsampling                       : 4:2:0
Bit depth                                : 8 bits
Scan type                                : Progressive
Compression mode                         : Lossy
Bits/(Pixel*Frame)                       : 0.127
Stream size                              : 633 MiB (92%)
Title                                    : NeoVideo10BV
Writing library                          : DivX 5.0.2 (UTC 2002-05-16)

Audio
ID                                       : 1
Format                                   : MPEG Audio
Format version                           : Version 1
Format profile                           : Layer 3
Mode                                     : Joint stereo
Mode extension                           : MS Stereo
Codec ID                                 : 55
Codec ID/Hint                            : MP3
Duration                                 : 1h 13mn
Bit rate mode                            : Constant
Bit rate                                 : 96.0 Kbps
Channel(s)                               : 2 channels
Sampling rate                            : 48.0 KHz
Compression mode                         : Lossy
Stream size                              : 50.5 MiB (7%)
Alignment                                : Split accross interleaves
Interleave, duration                     : 24 ms (0.60 video frame)
Interleave, preload duration             : 67 ms
Title                                    : NeoSound10BV0


Imagen
Imagen
Imagen

eD2K link 6 [Dvix - ITA]Totò - Il Ratto delle Sabine - Il professor Trombone (1945).avi [690.03 Mb] 

Subtítulos en español, cortesía de carnicerito:
http://www.subdivx.com/X6XMjg1OTQ1X-il- ... abine.html
Última edición por Vozidar el Dom May 20, 2012 8:05 pm, editado 1 vez en total
Vozidar
Intérprete Starsystem
Intérprete Starsystem
 
Mensajes: 491
Registrado: Lun Abr 27, 2009 9:26 pm

Re: Il ratto delle sabine (Mario Bonnard, 1945) DVDRip VOSIt

Notapor droid » Vie May 04, 2012 7:06 pm

Me apunto (gracias, Vozidar :good: ) y le mando muchos ánimos a Carnicerito.

Saludos. :hola:
Cine-Clásico somos tod@s
Avatar de Usuario
droid
-
 
Mensajes: 5086
Registrado: Jue May 18, 2006 8:19 am
Ubicación: Cercando un centro di gravità permanente

Re: Il ratto delle sabine (Mario Bonnard, 1945) DVDRip VOSIt

Notapor joeraymond » Vie May 04, 2012 11:20 pm

Muchas gracias.
Yo también soy Cine-Clásico
Avatar de Usuario
joeraymond
Director consagrado
Director consagrado
 
Mensajes: 2727
Registrado: Mié May 10, 2006 2:19 pm

Re: Il ratto delle sabine (Mario Bonnard, 1945) DVDRip VOSIt

Notapor nguada » Sab May 05, 2012 12:41 am

¡Otra de Tòto! ¡Muchas gracias!
nguada
Aficionad@
Aficionad@
 
Mensajes: 55
Registrado: Mié Jun 11, 2008 3:38 am

Re: Il ratto delle sabine (Mario Bonnard, 1945) DVDRip VOSIt

Notapor carnicerito » Dom May 06, 2012 11:34 am

Vozidar escribió:
carnicerito escribió:Hace tiempo que me ronda Il ratto delle sabine. Traduciré desde el DVD.
A ver si despejo un poco la mesa de trabajo.


Animémoslo, que no presionémoslo.


Me doy por presionado. Esto... por aludido.
carnicerito
Cinéfil@
Cinéfil@
 
Mensajes: 87
Registrado: Vie Jul 31, 2009 12:46 pm

Re: Il ratto delle sabine (Mario Bonnard, 1945) DVDRip VOSIt

Notapor torasan » Dom May 06, 2012 2:03 pm

Grazie.
Avatar de Usuario
torasan
Amante del cine
Amante del cine
 
Mensajes: 155
Registrado: Dom Nov 01, 2009 2:54 am

Re: Il ratto delle sabine (Mario Bonnard, 1945) DVDRip VOSIt

Notapor JGUTII » Mié May 09, 2012 7:01 am

Muchas gracias, Vozidar y carnicerito. C&C :hola:
Avatar de Usuario
JGUTII
Director consagrado
Director consagrado
 
Mensajes: 4755
Registrado: Mié Ago 08, 2007 9:58 pm
Ubicación: Ciudad del Betis


Volver a Largos Clásicos

¿Quién está conectado?

Usuarios navegando por este Foro: Majestic-12 [Bot] y 1 invitado