Il medico dei pazzi (Mario Mattoli, 1954) DVDRip VOSIt

Elinks de largometrajes de cine clásico (Classic feature films) anteriores a 1.959 inclusive (<= 1.959) cuyo metraje exceda los 45 minutos (> 45 min.)

Il medico dei pazzi (Mario Mattoli, 1954) DVDRip VOSIt

Notapor Vozidar » Vie May 18, 2012 8:00 am

Imagen Imagen

IMDB: http://www.imdb.com/title/tt0047224/
FILMAFFINITY: http://www.filmaffinity.com/es/film338967.html

DIRECTOR
Mario Mattoli

GUIÓN
Ruggero Maccari, Mario Mattoli, Vincenzo Talarico, Totò (Obra: Eduardo Scarpetta)

MÚSICA
Pippo Barzizza

FOTOGRAFÍA
Riccardo Pallottini

REPARTO
Totò ... Felice Sciosciammocca
Franca Marzi ... La moglie di Cristaldi
Aldo Giuffrè ... Ciccillo
Vittoria Crispo ... Amalia
Carlo Ninchi ... L'attore
Tecla Scarano ... La moglie di Felice
Nerio Bernardi ... Il colonello
Giacomo Furia ... Michele
Nora Ricci ... La figlia di Amalia
Anna Campori ... Una signora
Mario Castellani ... Cristaldi

PRODUCTORA Ponti
GÉNERO Comedia | Años 1910-1919
SINOPSIS Nápoles, 1911. En la pensión Estrella vive Ciccillo, mantenido por su rico tío Felice Sciosciammocca, alcalde de Roccasecca. Éste cree que su sobrino ha estudiado medicina, es psiquiatra y regenta una clínica. Pero en realidad Ciccillo se ha dado a la buena vida y al juego. Así cuando Felice con la familia decide ir a ver a su sobrino, a Ciccillo no se le ocurre otra cosa que hacer pasar la pensión Estrella por su manicomio y a los huéspedes por locos, algo por otra parte, no muy alejado de la realidad...

Con esta se completa la trilogía de películas del tándem Mario Mattoli-Totò basadas en obras del dramaturgo napolitano Eduardo Scarpetta, tras "Miseria y nobleza":
viewtopic.php?f=90&t=28989&hilit=miseria
y "Un turco napoletano":
viewtopic.php?f=90&t=31317&hilit=turco+napoletano

Código: Seleccionar todo
General
Complete name                            :Il Medico dei Pazzi - Toto.avi
Format                                   : AVI
Format/Info                              : Audio Video Interleave
File size                                : 1.37 GiB
Duration                                 : 1h 23mn
Overall bit rate                         : 2 357 Kbps
Writing application                      : FairUse Wizard - http://fairusewizard.com
Writing library                          : The best and REALLY easy backup tool

Video
ID                                       : 0
Format                                   : MPEG-4 Visual
Format settings, BVOP                    : 2
Format settings, QPel                    : No
Format settings, GMC                     : No warppoints
Format settings, Matrix                  : Default (H.263)
Muxing mode                              : Packed bitstream
Codec ID                                 : DX50
Codec ID/Hint                            : DivX 5
Duration                                 : 1h 23mn
Bit rate                                 : 2 155 Kbps
Width                                    : 720 pixels
Height                                   : 528 pixels
Display aspect ratio                     : 4:3
Frame rate                               : 25.000 fps
Color space                              : YUV
Chroma subsampling                       : 4:2:0
Bit depth                                : 8 bits
Scan type                                : Progressive
Compression mode                         : Lossy
Bits/(Pixel*Frame)                       : 0.227
Stream size                              : 1.25 GiB (91%)
Writing library                          : DivX 6.7.0 (UTC 2007-09-20)

Audio
ID                                       : 1
Format                                   : AC-3
Format/Info                              : Audio Coding 3
Mode extension                           : CM (complete main)
Codec ID                                 : 2000
Duration                                 : 1h 23mn
Bit rate mode                            : Constant
Bit rate                                 : 192 Kbps
Channel(s)                               : 1 channel
Channel positions                        : Front: C
Sampling rate                            : 48.0 KHz
Bit depth                                : 16 bits
Compression mode                         : Lossy
Stream size                              : 114 MiB (8%)
Alignment                                : Split accross interleaves
Interleave, duration                     : 40 ms (1.00 video frame)
Interleave, preload duration             : 500 ms


Imagen
Imagen
Imagen

eD2K link Il Medico dei Pazzi - Toto.avi [1.37 Gb] 

Subtítulos en italiano:
http://www.opensubtitles.org/en/subtitl ... i-pazzi-it
Vozidar
Intérprete Starsystem
Intérprete Starsystem
 
Mensajes: 491
Registrado: Lun Abr 27, 2009 9:26 pm

Re: Il medico dei pazzi (Mario Mattoli, 1954) DVDRip VOSIt

Notapor eddelon » Vie May 18, 2012 6:08 pm

Muchas gracias amigo por traerla y ojalá aparezcan los sub en español :good: :good:

:hola:
Avatar de Usuario
eddelon
Director de culto
Director de culto
 
Mensajes: 862
Registrado: Vie Jul 16, 2010 12:43 am
Ubicación: Bs. As.- Argentina

Re: Il medico dei pazzi (Mario Mattoli, 1954) DVDRip VOSIt

Notapor joeraymond » Dom May 20, 2012 12:26 am

Muchas gracias.
Yo también soy Cine-Clásico
Avatar de Usuario
joeraymond
Director consagrado
Director consagrado
 
Mensajes: 2727
Registrado: Mié May 10, 2006 2:19 pm

Re: Il medico dei pazzi (Mario Mattoli, 1954) DVDRip VOSIt

Notapor nguada » Lun May 21, 2012 7:36 am

Muchas gracias Vozidar por traer otra del maestro Totò
nguada
Aficionad@
Aficionad@
 
Mensajes: 55
Registrado: Mié Jun 11, 2008 3:38 am


Volver a Largos Clásicos

¿Quién está conectado?

Usuarios navegando por este Foro: Google [Bot] y 3 invitados