East is East (Damien O'Donnell, 1999) DVDRip Dual SE

Elinks de largometrajes de cine contemporáneo posteriores a 1.980 inclusive (>= 1.980), producidos hace más de 3 años y cuyo metraje exceda los 45 minutos (> 45 min.)
Reglas del Foro
No se admiten largometrajes de cine contemporáneo cuya fecha de producción sea inferior de 3 años completos. Lea la norma de los 3 años

East is East (Damien O'Donnell, 1999) DVDRip Dual SE

Notapor Vozidar » Dom Sep 11, 2011 7:03 pm

Imagen

IMDB: http://www.imdb.com/title/tt0166175/
FILMAFFINITY: http://www.filmaffinity.com/es/film818610.html

DIRECTOR
Damien O'Donnell

GUIÓN
Ayub Khan-Din

MÚSICA
Deborah Mollison

FOTOGRAFÍA
Brian Tufano

REPARTO
Om Puri ... George Khan
Linda Bassett ... Ella Khan
Jordan Routledge ... Sajid Khan
Archie Panjabi ... Meenah Khan
Emil Marwa ... Maneer Khan
Chris Bisson ... Saleem Khan
Jimi Mistry ... Tariq Khan
Raji James ... Abdul Khan
Ian Aspinall ... Nazir Khan
Lesley Nicol ... Tía Annie

PRODUCTORA Film Four / Assassin Films
PREMIOS 1999: Seminci: Espiga de Oro: Mejor película. Mejor Actriz (Linda Basset)
GÉNERO Comedia | Inmigración. Comedia dramática. Años 70
SINOPSIS Gran Bretaña, principios de los años setenta. George Khan (Om Puri), un padre de origen paquistaní muy tradicionalista casado con una británica, Ella (Linda Bassett), se encuentra con que sus hijos quieren seguir por caminos divergentes al suyo. Sus seis hijos y una hija se resisten a que sus matrimonios sean concertados, y quieren vivir una vida conforme a las costumbres del país en que han nacido.
----------------------------------------
En 2010 se estrena la secuela, "West is West".
---------------------------------------

Era increíble que esta "popular" película inglesa no tuviera subtítulos en español disponibles en internet. Lo que sí había era subtítulos en inglés y la versión doblada al español, gracias a las dos cosas y a la fantástica labor de nuestro amado droid, traemos todo el pack completo.

En la versión doblada al español todos hablan como si hubieran estudiado en la universidad complutense, pero lo cierto es que el cabeza de familia tiene un acentazo brutal (uno de los aspectos cómicos de la película) y en el 95% de sus frases pronuncia la palabra "bloody", que ni en los subtítulos era posible añadir siempre. El tipo habla pegándole patadas a la gramática y los tiempos verbales, cosa que tampoco se puede plasmar en los subtítulos.

Datos técnicos:
Spoiler: +
General
Complete name : EAST IS EAST (1999).avi
Format : AVI
Format/Info : Audio Video Interleave
File size : 696 MiB
Duration : 1h 32mn
Overall bit rate : 1 055 Kbps
Writing application : VirtualDubMod 1.5.10.2 (build 2542/release)
Writing library : VirtualDubMod build 2542/release

Video
ID : 0
Format : MPEG-4 Visual
Format profile : Advanced Simple@L5
Format settings, BVOP : 2
Format settings, QPel : No
Format settings, GMC : No warppoints
Format settings, Matrix : Default (MPEG)
Muxing mode : Packed bitstream
Codec ID : XVID
Codec ID/Hint : XviD
Duration : 1h 32mn
Bit rate : 921 Kbps
Width : 608 pixels
Height : 336 pixels
Display aspect ratio : 16:9
Frame rate : 25.000 fps
Color space : YUV
Chroma subsampling : 4:2:0
Bit depth : 8 bits
Scan type : Progressive
Compression mode : Lossy
Bits/(Pixel*Frame) : 0.180
Stream size : 608 MiB (87%)
Writing library : XviD 1.2.1 (UTC 2008-12-04)

Audio
ID : 1
Format : MPEG Audio
Format version : Version 1
Format profile : Layer 3
Mode : Dual mono
Codec ID : 55
Codec ID/Hint : MP3
Duration : 1h 32mn
Bit rate mode : Variable
Bit rate : 122 Kbps
Nominal bit rate : 128 Kbps
Channel(s) : 2 channels
Sampling rate : 48.0 KHz
Compression mode : Lossy
Stream size : 80.3 MiB (12%)
Alignment : Aligned on interleaves
Interleave, duration : 24 ms (0.60 video frame)
Interleave, preload duration : 151 ms
Writing library : LAME3.97
Encoding settings : -m d -V 4 -q 3 -lowpass 17 --abr 128


Imagen
Imagen

eD2K link East is East (Damien O'Donnell, 1999) DVDRip Dual [ENG-ESP].avi [799.63 Mb] 

Subtítulos en español:
http://www.subdivx.com/X6XMjU1MTI5

English subs:
http://www.opensubtitles.net/en/movie-s ... ac/4235021
Vozidar
Intérprete Starsystem
Intérprete Starsystem
 
Mensajes: 491
Registrado: Lun Abr 27, 2009 9:26 pm

Re: East is East (Damien O'Donnell, 1999) DVDRip Dual + SE

Notapor droid » Dom Sep 11, 2011 8:20 pm

Muchas gracias por darnos a conocer otra película atípica, y por otro subtítulo más, Vozidar. :bravo: :bravo: :bravo:

Saludos. :hola:
Cine-Clásico somos tod@s
Avatar de Usuario
droid
-
 
Mensajes: 5086
Registrado: Jue May 18, 2006 8:19 am
Ubicación: Cercando un centro di gravità permanente

Re: East is East (Damien O'Donnell, 1999) DVDRip Dual + SE

Notapor maurito093 » Dom Sep 11, 2011 9:29 pm

excelente aporte, gracias
Avatar de Usuario
maurito093
Crítico de prestigio
Crítico de prestigio
 
Mensajes: 215
Registrado: Vie Sep 12, 2008 4:44 am
Ubicación: Buenos Aires, Argentina

Re: East is East (Damien O'Donnell, 1999) DVDRip Dual + SE

Notapor joeraymond » Dom Sep 11, 2011 10:26 pm

Muchas gracias, Vozidar.
Yo también soy Cine-Clásico
Avatar de Usuario
joeraymond
Director consagrado
Director consagrado
 
Mensajes: 2727
Registrado: Mié May 10, 2006 2:19 pm

Re: East is East (Damien O'Donnell, 1999) DVDRip Dual SE

Notapor Ciberyago » Lun Sep 12, 2011 5:35 am

Pinta interesante. Gracias Vozidar y Droid!!!
Ciberyago
Guionista colosal
Guionista colosal
 
Mensajes: 555
Registrado: Mar Feb 17, 2009 4:09 am
Ubicación: Argentina

Re: East is East (Damien O'Donnell, 1999) DVDRip Dual SE

Notapor PolMcCarry » Mar Sep 13, 2011 2:20 am

Ciberyago escribió:Pinta interesante. Gracias Vozidar y Droid!!!



:bravo: :hola:

La recuerdo con agrado
Avatar de Usuario
PolMcCarry
Director consagrado
Director consagrado
 
Mensajes: 5149
Registrado: Sab Jun 02, 2007 2:38 am

Re: East is East (Damien O'Donnell, 1999) DVDRip Dual SE

Notapor euridoco » Jue May 24, 2012 11:36 pm

Recuperemos esta divertida película. Absolutamente recomendable.
Avatar de Usuario
euridoco
Gran camarógraf@
Gran camarógraf@
 
Mensajes: 368
Registrado: Mar Mar 06, 2007 11:57 pm

Re: East is East (Damien O'Donnell, 1999) DVDRip Dual SE

Notapor heinlein » Vie May 25, 2012 12:01 am

Muchas gracias Vozidar.
Cine-clásico secuestrado: TOTEM, pásale de una vez la gestión de la web a droid y a chuschao
Avatar de Usuario
heinlein
Director consagrado
Director consagrado
 
Mensajes: 3258
Registrado: Dom Oct 09, 2005 1:03 am


Volver a Largos Contemporáneos

¿Quién está conectado?

Usuarios navegando por este Foro: No hay usuarios registrados visitando el Foro y 0 invitados