L'ultima carrozzella (Mario Mattoli, 1943) DVDRip VOSI

Elinks de largometrajes de cine clásico (Classic feature films) anteriores a 1.959 inclusive (<= 1.959) cuyo metraje exceda los 45 minutos (> 45 min.)

L'ultima carrozzella (Mario Mattoli, 1943) DVDRip VOSI

Notapor Vozidar » Jue May 17, 2012 5:39 pm

Imagen
Imagen

IMDB: http://www.imdb.com/title/tt0036470/
FILMAFFINITY: http://www.filmaffinity.com/es/film653321.html

DIRECTOR
Mario Mattoli

GUIÓN
Aldo Fabrizi, Federico Fellini (Historia: Aldo Fabrizi)

MÚSICA
Mario Ruccione

FOTOGRAFÍA
Tino Santoni (B&W)

REPARTO
Aldo Fabrizi ... Antonio Urbani, "Totò"
Anna Magnani ... Mary Dunchetti, la canzonettista
Anita Durante ... Adele Urbani
Elide Spada ... Nannarella Urbani
Enzo Fiermonte ... Roberto Pinelli, l'autista
Aristide Garbini ... Pasquale, suo padre
Lauro Gazzolo ... Andrea, il portiere
Tino Scotti ... Valentino Doriani, il comico
Nando Bruno ... Augusto Pallotta, il vetturino
Leopoldo Valentini ... Ottone Roncucci detto "Paradiso"
Oreste Fares ... Il medico

PRODUCTORA Artisti Associati / Continentalcine
GÉNERO Comedia
SINOPSIS Totó es un cochero que se niega a reemplazar su medio de locomoción por un moderno automóvil. Además, su hija Nanarella comienza a salir con Roberto, un joven taxista que a Totó no le gusta nada.

Código: Seleccionar todo
General
Complete name                            : Mario Mattoli - L Ultima Carrozzella.avi
Format                                   : AVI
Format/Info                              : Audio Video Interleave
File size                                : 998 MiB
Duration                                 : 1h 25mn
Overall bit rate                         : 1 630 Kbps
Writing application                      : VirtualDubMod 1.5.10.2 (build 2540/release)
Writing library                          : VirtualDubMod build 2540/release

Video
ID                                       : 0
Format                                   : MPEG-4 Visual
Format profile                           : Advanced Simple@L5
Format settings, BVOP                    : 2
Format settings, QPel                    : No
Format settings, GMC                     : No warppoints
Format settings, Matrix                  : Default (H.263)
Codec ID                                 : XVID
Codec ID/Hint                            : XviD
Duration                                 : 1h 25mn
Bit rate                                 : 1 428 Kbps
Width                                    : 672 pixels
Height                                   : 480 pixels
Display aspect ratio                     : 1.400
Frame rate                               : 25.000 fps
Color space                              : YUV
Chroma subsampling                       : 4:2:0
Bit depth                                : 8 bits
Scan type                                : Progressive
Compression mode                         : Lossy
Bits/(Pixel*Frame)                       : 0.177
Stream size                              : 875 MiB (88%)
Writing library                          : XviD 1.2.1 (UTC 2008-12-04)

Audio
ID                                       : 1
Format                                   : AC-3
Format/Info                              : Audio Coding 3
Mode extension                           : CM (complete main)
Codec ID                                 : 2000
Duration                                 : 1h 25mn
Bit rate mode                            : Constant
Bit rate                                 : 192 Kbps
Channel(s)                               : 2 channels
Channel positions                        : Front: L R
Sampling rate                            : 48.0 KHz
Bit depth                                : 16 bits
Compression mode                         : Lossy
Delay relative to video                  : 80ms
Stream size                              : 118 MiB (12%)
Alignment                                : Split accross interleaves
Interleave, duration                     : 40 ms (1.00 video frame)
Interleave, preload duration             : 500 ms


Imagen

eD2K link L'Ultima Carrozzella.avi [998.14 Mb] 

Subtítulos en inglés:
http://www.opensubtitles.org/en/subtitl ... ozzella-en
Última edición por Vozidar el Lun May 21, 2012 12:17 pm, editado 1 vez en total
Vozidar
Intérprete Starsystem
Intérprete Starsystem
 
Mensajes: 491
Registrado: Lun Abr 27, 2009 9:26 pm

Re: L'ultima carrozzella (Mario Mattoli, 1943) SATRip VOSI

Notapor droid » Jue May 17, 2012 6:34 pm

Magnifico dúo el de Magnani y Fabrizi.

Muchas gracias, Vozidar. :good:
Cine-Clásico somos tod@s
Avatar de Usuario
droid
-
 
Mensajes: 5086
Registrado: Jue May 18, 2006 8:19 am
Ubicación: Cercando un centro di gravità permanente

Re: L'ultima carrozzella (Mario Mattoli, 1943) DVDRip VOSI

Notapor Vozidar » Lun May 21, 2012 12:18 pm

Renovada la copia por un DVD Rip.
Vozidar
Intérprete Starsystem
Intérprete Starsystem
 
Mensajes: 491
Registrado: Lun Abr 27, 2009 9:26 pm

Re: L'ultima carrozzella (Mario Mattoli, 1943) SATRip VOSI

Notapor JGUTII » Lun May 21, 2012 7:59 pm

droid escribió:Magnifico dúo el de Magnani y Fabrizi.

Muchas gracias, Vozidar. :good:
:good: :hola:
Avatar de Usuario
JGUTII
Director consagrado
Director consagrado
 
Mensajes: 4755
Registrado: Mié Ago 08, 2007 9:58 pm
Ubicación: Ciudad del Betis


Volver a Largos Clásicos

¿Quién está conectado?

Usuarios navegando por este Foro: Google [Bot] y 5 invitados