Superman (Richard Donner, 1978) HDDVDRip Tri-Audio SE

Elinks de largometrajes de cine moderno (Modern feature films) posteriores a 1.960 (>= 1.960) anteriores a 1.979 (<= 1.979) inclusive, cuyo metraje exceda los 45 minutos (> 45 min.)

Superman (Richard Donner, 1978) HDDVDRip Tri-Audio SE

Notapor snatcher » Mar May 22, 2012 6:23 pm

Imagen

Ficha artística

TÍTULO ORIGINAL Superman: The Movie
AÑO 1978
DURACIÓN 143 min.
PAÍS Imagen Imagen
DIRECTOR Richard Donner
GUIÓN Robert Benton, David Newman, Leslie Newman, Mario Puzo (Cómic: Joe Shuster, Jerry Siegel)
MÚSICA John Williams
FOTOGRAFÍA Geoffrey Unsworth
REPARTO Christopher Reeve, Marlon Brando, Margot Kidder, Gene Hackman, Terence Stamp, Glenn Ford, Trevor Howard, Ned Beatty, Jackie Cooper, Aaron Smolinski, Susannah York, Larry Hagman
PRODUCTORA Warner Bros. Pictures
PREMIOS 1978: 3 nominaciones al Oscar: Bso, montaje, sonido. Premio Especial (efect. visuales)
GÉNERO Ciencia ficción. Fantástico. Aventuras | Superhéroes. Cómic. DC Comics
SINOPSIS Desde una galaxia remota, un recién nacido es enviado por sus padres al espacio debido a la inminente destrucción del planeta donde viven. La nave aterriza en la Tierra, y el niño es adoptado por unos granjeros que le inculcan los mejores valores humanos. Con los años el joven se irá a Metrópolis y allí usará sus poderes sobrenaturales para luchar contra el mal... (FILMAFFINITY)

Ficha técnica

General
Nombre completo: SUPERMAN.1978.1080p.x264.Triaudio.sub.mkv
Tamaño del archivo: 13,8GIB
Duración: 2h 31min.

Video
ID Códec: x264
Tasa de bits: 12.0 Mbps
Ancho: 1920pixeles
Alto: 800pixeles
Relación de aspecto: 2,40:1
Velocidad de cuadro: 23,976fps
Bits/(Pixel*cuadro): 0.326
Librería de codificación: x264 core 116 r2074 2641b9e

Audio #1 Imagen
Formato: AC-3
Tipo de tasa de bits: Constante
Tasa de bits: 448Kbps
Canal(es): 6canales
Posiciones del canal: Front: L C R, Side: L R, LFE
Velocidad de muestreo: 48,0KHz

Audio #2 Imagen
Formato: AC-3
Tipo de tasa de bits: Constante
Tasa de bits: 192Kbps
Canal(es): 2canales
Posiciones del canal: Front: L R
Velocidad de muestreo: 48,0KHz

Audio #3 Imagen
Formato: AC-3
Tipo de tasa de bits: Constante
Tasa de bits: 448Kbps
Canal(es): 6canales
Posiciones del canal: Front: L C R, Side: L R, LFE
Velocidad de muestreo: 48,0KHz

eD2K link SUPERMAN.1978.1080p.x264.Triaudio.sub.mkv 13,8GB

www.divxclasico.com escribió:Audio español original de la primera versión: (cortesía de j8ta)
Audio.Original.de.1978.en.español.de.Superman.1.mp3 [132.96 Mb]


He usado éste audio que además ya incluía las partes añadidas de la version extendida, tan solo he tenido que pasarlo de 25 frames a 23.976 y un poquitin de recortar espacios en blanco para mayor sincronia labial, en algunas partes se nota un poco más la falta de sincronia. La calidad del audio no es muy p´alla, solo para nostalgicos



Código: Seleccionar todo
General
Unique ID                        : 239024615862281451760029029541984976251 (0xB3D2776D6D761B459482FFB1BFC1BD7B)
Complete name                    : E:\eMule\incoming\SUPERMAN.1978.1080p.x264.Triaudio.sub.mkv
Format                           : Matroska
Format version                   : Version 1
File size                        : 13.8 GiB
Duration                         : 2h 31mn
Overall bit rate                 : 13.1 Mbps
Encoded date                     : UTC 2012-01-18 17:44:29
Writing application              : mkvmerge v2.4.2 ('Oh My God') built on Jan 18 2009 17:30:28
Writing library                  : libebml v0.7.7 + libmatroska v0.8.1

Video
ID                               : 1
Format                           : AVC
Format/Info                      : Advanced Video Codec
Format profile                   : High@L4.1
Format settings, CABAC           : Yes
Format settings, ReFrames        : 5 frames
Codec ID                         : V_MPEG4/ISO/AVC
Duration                         : 2h 31mn
Bit rate                         : 12.0 Mbps
Width                            : 1 920 pixels
Height                           : 800 pixels
Display aspect ratio             : 2.40:1
Frame rate                       : 23.976 fps
Color space                      : YUV
Chroma subsampling               : 4:2:0
Bit depth                        : 8 bits
Scan type                        : Progressive
Bits/(Pixel*Frame)               : 0.326
Stream size                      : 12.4 GiB (90%)
Writing library                  : x264 core 116 r2074 2641b9e
Encoding settings                : cabac=1 / ref=5 / deblock=1:0:0 / analyse=0x3:0x133 / me=hex / subme=7 / psy=1 / psy_rd=1.00:0.15 / mixed_ref=1 / me_range=16 / chroma_me=1 / trellis=2 / 8x8dct=1 / cqm=0 / deadzone=21,11 / fast_pskip=1 / chroma_qp_offset=-3 / threads=4 / sliced_threads=0 / nr=0 / decimate=1 / interlaced=0 / bluray_compat=0 / constrained_intra=0 / bframes=3 / b_pyramid=2 / b_adapt=2 / b_bias=0 / direct=3 / weightb=1 / open_gop=0 / weightp=2 / keyint=240 / keyint_min=23 / scenecut=40 / intra_refresh=0 / rc_lookahead=60 / rc=2pass / mbtree=1 / bitrate=12000 / ratetol=1.0 / qcomp=0.60 / qpmin=0 / qpmax=69 / qpstep=4 / cplxblur=20.0 / qblur=0.5 / ip_ratio=1.40 / aq=1:1.00
Language                         : English

Audio #1
ID                               : 2
Format                           : AC-3
Format/Info                      : Audio Coding 3
Mode extension                   : CM (complete main)
Codec ID                         : A_AC3
Duration                         : 2h 31mn
Bit rate mode                    : Constant
Bit rate                         : 448 Kbps
Channel(s)                       : 6 channels
Channel positions                : Front: L C R, Side: L R, LFE
Sampling rate                    : 48.0 KHz
Bit depth                        : 16 bits
Compression mode                 : Lossy
Stream size                      : 485 MiB (3%)
Title                            : Spanish  AC3 5.1 448 kbps
Language                         : Spanish

Audio #2
ID                               : 3
Format                           : AC-3
Format/Info                      : Audio Coding 3
Mode extension                   : CM (complete main)
Codec ID                         : A_AC3
Duration                         : 2h 31mn
Bit rate mode                    : Constant
Bit rate                         : 192 Kbps
Channel(s)                       : 2 channels
Channel positions                : Front: L R
Sampling rate                    : 48.0 KHz
Bit depth                        : 16 bits
Compression mode                 : Lossy
Stream size                      : 208 MiB (1%)
Title                            : Doblaje Original Español de 1978  AC3 2.0 192 kbps
Language                         : Spanish

Audio #3
ID                               : 4
Format                           : AC-3
Format/Info                      : Audio Coding 3
Mode extension                   : CM (complete main)
Codec ID                         : A_AC3
Duration                         : 2h 31mn
Bit rate mode                    : Constant
Bit rate                         : 448 Kbps
Channel(s)                       : 6 channels
Channel positions                : Front: L C R, Side: L R, LFE
Sampling rate                    : 48.0 KHz
Bit depth                        : 16 bits
Compression mode                 : Lossy
Stream size                      : 485 MiB (3%)
Title                            : English AC3 5.1 448 kbps
Language                         : English

Text #1
ID                               : 5
Format                           : UTF-8
Codec ID                         : S_TEXT/UTF8
Codec ID/Info                    : UTF-8 Plain Text
Title                            : Spanish SRT
Language                         : Spanish

Text #2
ID                               : 6
Format                           : UTF-8
Codec ID                         : S_TEXT/UTF8
Codec ID/Info                    : UTF-8 Plain Text
Title                            : English SRT
Language                         : English


Imagen Imagen Imagen

Copia privada de mi HDDVD incluyendo el doblaje original español del estreno cinematografico de 1978, que lo disfruten los nostalgicos
Avatar de Usuario
snatcher
Novatill@
Novatill@
 
Mensajes: 14
Registrado: Mar Abr 12, 2011 6:49 am

Re: Superman (Richard Donner, 1978) HDDVDRip Tri-Audio SE

Notapor snatcher » Mar May 22, 2012 6:24 pm

No he encontrado nigun tema de Superman en el buscador, espero no haberme equivocado abriendo uno nuevo :no:
Avatar de Usuario
snatcher
Novatill@
Novatill@
 
Mensajes: 14
Registrado: Mar Abr 12, 2011 6:49 am

Re: Superman (Richard Donner, 1978) HDDVDRip Tri-Audio SE

Notapor sabadell » Mié May 23, 2012 2:40 am

No está de más volver a verla en mejor calidad, gracias snatcher
Avatar de Usuario
sabadell
Amante del cine
Amante del cine
 
Mensajes: 186
Registrado: Sab Feb 02, 2008 4:14 am

Re: Superman (Richard Donner, 1978) HDDVDRip Tri-Audio SE

Notapor pepecine » Jue May 24, 2012 2:06 am

Gracias snatcher, fantastica calidad.
pepecine
Gran Productor
Gran Productor
 
Mensajes: 641
Registrado: Mar May 01, 2007 7:21 pm

Re: Superman (Richard Donner, 1978) HDDVDRip Tri-Audio SE

Notapor chaltonheston » Jue May 24, 2012 10:39 pm

¿No habría algún modo de hacerla menos pesada? Esas trece gigas y pico no sabe uno donde meterlas. Oo Oo
chaltonheston
Amante del cine
Amante del cine
 
Mensajes: 154
Registrado: Dom Jun 14, 2009 10:20 pm


Volver a Largos Modernos

¿Quién está conectado?

Usuarios navegando por este Foro: No hay usuarios registrados visitando el Foro y 6 invitados

cron