•  Ci-Cl Archivo
  • Imagen

    Archivo Cine-Clásico
    Acceso público

  •  Cumpleaños

  •  Buscar
  • Búsqueda avanzada


  •  Últimos miembros

  •  Estilo del foro


  •  Estadísticas
  • Totales
    Mensajes totales 160031
    Temas totales 12809
    Anuncios totales: 72
    Fijos totales: 24
    Adjuntos totales: 0

    Temas por día: 8
    Mensajes por día: 95
    Usuarios por día: 3
    Temas por usuario: 2
    Mensajes por usuario: 31
    Mensajes por tema: 12

    Usuarios totales 5242
    Nuestro Miembro más reciente es kermit2107

  •  Enlace con nosotros
  • Por favor, siéntase libre de enlazar a . Utilice el siguiente código HTML:



Imagen
Sims

Cinefórum-Clásico es un foro de cine que utiliza las redes KAD (eMule)

Bienvenidos

Ver último mensaje I fuorilegge del matrimonio (Hermanos Taviani & Orsini, 1963) TVRip VOSRo


Imagen

IMDB: http://www.imdb.com/title/tt0057084/
FILMAFFINITY: http://www.filmaffinity.com/es/film185669.html


Director
Paolo Taviani, Vittorio Taviani, Valentino Orsini

Guion
Paolo Taviani, Vittorio Taviani, Valentino Orsini, Lucio Battistrada, Giuliano G. De Negri, Renato Niccolai

Música
Giovanni Fusco

Fotografía
Erico Menczer (B&W)

Reparto
Ugo Tognazzi ... Vasco Timballo
Annie Girardot ... Margherita
Romolo Valli ... Francesco
Marina Malfatti ... Rosanna
Scilla Gabel ... Wilma
Didi Perego ... Caterina Rinaldi
Isa Crescenzi ... Giulia
Gabriella Giorgelli ... Livia
Enzo Robutti
Emy Eco
Armando Bertuccioli
Marinangela Matteuzzi
Franca Lumachi
Renato Niccolai
Luigi Scavran

Productora
Ager Cinematografica / D'Errico Film / Film Coop
Género
Comedia
Sinopsis
La cinta describe los principales puntos del piccolo divorzo, propuesta de ley presentada por el diputado Luigi Renato Sansone para la regularización de las separaciones matrimoniales. En ella se muestran seis casos en los que el divorcio era necesario: conyuges que desaparecieron sin dejar rastro, condenados a largas penas de prisión, esposos extranjeros que abandonan sus hogares, casamientos con enfermos mentales, largas separaciones e intentos de asesinato. Durante el largometraje se retrata la vida de hombres casados con internas de manicomios que no los reconocen, o mujeres que se enfrentan a la iglesia para conseguir su libertad, así como parejas atrapadas en la monotonía de relaciones desgastadas, entre otros relatos.

---------------------------------------------------------------

Code: Seleccionar todo
General
Complete name               : Valentino Orsini, Paolo e Vittorio Taviani - I fuorilegge del matrimonio - 1963 - Ugo Tognazzi, Scilla Gabel, Annie Girardot, Didi Perego.avi
Format                      : AVI
Format/Info                 : Audio Video Interleave
File size                   : 771 MiB
Duration                    : 1 h 34 min
Overall bit rate            : 1 138 kb/s

Video
ID                          : 0
Format                      : MPEG-4 Visual
Format settings, BVOP       : 1
Format settings, QPel       : No
Format settings, GMC        : No warppoints
Format settings, Matrix     : Default (H.263)
Muxing mode                 : Packed bitstream
Codec ID                    : DX50
Codec ID/Hint               : DivX 5
Duration                    : 1 h 34 min
Bit rate                    : 1 000 kb/s
Nominal bit rate            : 4 854 kb/s
Width                       : 720 pixels
Height                      : 540 pixels
Display aspect ratio        : 4:3
Frame rate                  : 25.000 FPS
Color space                 : YUV
Chroma subsampling          : 4:2:0
Bit depth                   : 8 bits
Scan type                   : Progressive
Compression mode            : Lossy
Bits/(Pixel*Frame)          : 0.103
Stream size                 : 677 MiB (88%)
Writing library             : DivX 1968

Audio
ID                          : 1
Format                      : MPEG Audio
Format version              : Version 1
Format profile              : Layer 3
Mode                        : Joint stereo
Mode extension              : MS Stereo
Codec ID                    : 55
Codec ID/Hint               : MP3
Duration                    : 1 h 34 min
Bit rate mode               : Constant
Bit rate                    : 128 kb/s
Channel(s)                  : 2 channels
Sampling rate               : 44.1 kHz
Compression mode            : Lossy
Stream size                 : 86.7 MiB (11%)
Alignment                   : Split accross interleaves
Interleave, duration        : 40  ms (1.00 video frame)
Interleave, preload duratio : 500  ms


Imagen
Imagen
Imagen
Imagen

ed2k://|file|Valentino%20Orsini,%20Paolo%20e%20Vittorio%20Taviani%20-%20I%20fuorilegge%20del%20matrimonio%20-%201963%20-%20Ugo%20Tognazzi,%20Scilla%20Gabel,%20Annie%20Girardot,%20Didi%20Perego.avi|808122552|4ED4A2F69E2B813DF5130EA7919564E3|h=JCLN3XK7K66PFXZZ3UJE6RG42PYPGFBG|/

Subtítulos en rumano:
https://www.opensubtitles.org/en/subtit ... rimonio-ro

:hi:

Vistas: 56  •  Comentarios: 4  •  Escribir comentario [ Atras ]

  • ¿Quién está conectado?
  • Hay 8 Usuarios identificados :: 4 registrados, 1 oculto y 3 invitados (basados en usuarios activos en los últimos 5 minutos)
    La mayor cantidad de usuarios identificados fue 91 el 25 Feb 2017, 16:04

    Usuarios registrados: Arthur James Hamp, hdjzgz, JThunders, Mercedes





  •  Cinefórum-Clásico recomienda

  •  Cinefórum-Clásico recomienda

  •  Cinefórum-Clásico recomienda
  • Imagen

    Imagen

    Imagen

    Imagen

    Imagen

    Revistas de Cine por Franxesco
    (clic en cada imagen)