•  Ci-Cl Archivo
  • Imagen

    Archivo Cine-Clásico
    Acceso público

  •  Cumpleaños

  •  Buscar
  • Búsqueda avanzada


  •  Últimos miembros

  •  Estilo del foro


  •  Estadísticas
  • Totales
    Mensajes totales 175689
    Temas totales 13651
    Anuncios totales: 72
    Fijos totales: 34
    Adjuntos totales: 0

    Temas por día: 7
    Mensajes por día: 92
    Usuarios por día: 3
    Temas por usuario: 3
    Mensajes por usuario: 33
    Mensajes por tema: 13

    Usuarios totales 5316
    Nuestro Miembro más reciente es DODGETERO

  •  Enlace con nosotros
  • Por favor, siéntase libre de enlazar a . Utilice el siguiente código HTML:



Imagen
mifune

Cinefórum-Clásico es un foro de cine que utiliza las redes KAD (eMule)

Bienvenidos

Ver último mensaje Murder is my Beat (Edgar G. Ulmer, 1955) DVDRip VOSE


Ripeo proporcionado por Arqlexdelcine


MURDER IS MY BEAT

Imagen

IMDB

AÑO: 1955
NACIONALIDAD:USA
GÉNERO: Noir
DIRECTOR: Edgar G. Ulmer
PRODUCTOR: Aubrey Wisberg
GUIÓN: Aubrey Wisberg
MÚSICA: Albert Glasser
FOTOGRAFÍA: Harold E. Wellman
MONTAJE: Fred R. Feitshans Jr.
REPARTO: Paul Langton, Barbara Payton, Robert Shayne, Selena Royle, Roy Gordon, Tracey Roberts, Kate MacKenna.
ARGUMENTO: El cadáver del Sr. Dean es encontrado boca abajo en la chimenea, con su rostro desfigurado por las quemaduras, sin poder ser reconocido. Los detectives Patrick (Paul Langton) y Rawley (Robert Shayne) arrestan a Eden Lane (Barbara Payton), una cantante de un nightclub, que es condenado por el crimen. De camino a la cárcel, Eden ve a un hombre a través de la ventanilla del tren, que lo identifica como el asesino, y tanto Patrick como la propia Eden saltan del tren para capturarlo... (FILMAFFINITY)

UNA DE LAS ÚLTIMAS PELÍCULAS REALIZADAS POR EDGAR G. ULMER, UN DIRECTOR QUE SIEMPRE SE MOVIÓ EN LOS MÁRGENES DE LA SERIE B O INCLUSO EN CANALES TOTALMENTE AJENOS A LA INDUSTRIA HOLLYWOODENSE. UN FILM QUE SIGUE LAS PAUTAS DE DETERMINADO CINE NEGRO (NARRACIÓN EN FLASH-BACK, AGENTE DEL ORDEN ATRAÍDO POR UNA MUJER HACIA TERRENOS PANTANOSOS, TANTO MORALES COMO LEGALES, BUSQUEDA DEL CRIMINAL EN UNA CIUDAD EXTRAÑA, RELACIÓN CUASI PATERNAL ENTRE EL PROTAGONISTA Y SU SUPERIOR) PERO QUE PESE AL ATRACTIVO ARRANQUE DEL MISMO, POCO A POCO SE VA DESINFLANDO Y CAYENDO EN DETERMINADAS CONDUCTAS DE LOS PERSONAJES BASTANTE CUESTIONABLES. UNA ACEPTABLE FOTOGRAFÍA, ALGUNOS ESCENARIOS NATURALES, EL SABER HACER DE ULMER EN ALGUNAS COMPOSICIONES DE LAS ESCENAS (ESE RECURRENTE INSERTO DEL TREN A TODA MARCHA COMO PLASMACÍON DE LAS TENSIONES INTERNAS DE LOS PERSONAJES) Y LA POSIBILIDAD DE VER A LA MALOGRADA BARBARA PAYTON, UNA DE LAS HISTORIAS MÁS TRISTES DEL HOLLYWOOD CLÁSICO, EN EL QUE SERÍA SU ÚLTIMO TRABAJO PARA LA GRAN PANTALLA, SON MOTIVOS QUE SE SUMAN A LOS SUBTÍTULOS EN CASTELLANO , CREADOS POR PRIMERA VEZ POR ARQLEXDELCINE PARA LA COMUNIDAD CINÉFILA. UNA ESTUPENDA OCASIÓN PARA APRECIAR ESTE DISCRETO, AUNQUE ATRACTIVO, NOIR DE ULMER DEL QUE ANTES SÓLO TENÍAMOS UN SATRIP VOSE DE CALIDAD INFERIOR.

CAPTURAS

Imagen

Imagen

Imagen

Imagen

Imagen

DATOS TECNICOS

Spoiler:
General
Unique ID : 189832219320092412205351483027839339119 (0x8ED05B05F7A6BC7D8E9C787F8B854A6F)
Complete name : M:\Emule\1955. Murder is my Beat (Edgar G. Ulmer).mkv
Format : Matroska
Format version : Version 2
File size : 1.91 GiB
Duration : 1h 17mn
Overall bit rate : 3 533 Kbps
Encoded date : UTC 2013-03-07 06:09:24
Writing application : mkvmerge v4.0.0 ('The Stars were mine') built on Jun 6 2010 16:18:42
Writing library : libebml v1.0.0 + libmatroska v1.0.0

Video
ID : 1
Format : AVC
Format/Info : Advanced Video Codec
Format profile : High@L4.1
Format settings, CABAC : Yes
Format settings, ReFrames : 16 frames
Codec ID : V_MPEG4/ISO/AVC
Duration : 1h 17mn
Bit rate : 3 271 Kbps
Width : 720 pixels
Height : 480 pixels
Display aspect ratio : 16:9
Frame rate mode : Constant
Frame rate : 23.976 fps
Standard : NTSC
Color space : YUV
Chroma subsampling : 4:2:0
Bit depth : 8 bits
Scan type : Progressive
Bits/(Pixel*Frame) : 0.395
Stream size : 1.77 GiB (93%)
Writing library : x264 core 130 r2273 b3065e6
Encoding settings : cabac=1 / ref=16 / deblock=1:-1:-1 / analyse=0x3:0x133 / me=umh / subme=10 / psy=1 / psy_rd=1.00:0.15 / mixed_ref=1 / me_range=24 / chroma_me=0 / trellis=2 / 8x8dct=1 / cqm=0 / deadzone=21,11 / fast_pskip=1 / chroma_qp_offset=-3 / threads=6 / lookahead_threads=1 / sliced_threads=0 / nr=0 / decimate=1 / interlaced=0 / bluray_compat=0 / constrained_intra=0 / bframes=8 / b_pyramid=2 / b_adapt=2 / b_bias=0 / direct=3 / weightb=1 / open_gop=0 / weightp=2 / keyint=250 / keyint_min=23 / scenecut=40 / intra_refresh=0 / rc_lookahead=60 / rc=crf / mbtree=1 / crf=19.2 / qcomp=0.60 / qpmin=0 / qpmax=69 / qpstep=4 / ip_ratio=1.40 / aq=1:1.00
Language : English
Default : No
Forced : No

Audio
ID : 2
Format : AC-3
Format/Info : Audio Coding 3
Mode extension : CM (complete main)
Format settings, Endianness : Big
Codec ID : A_AC3
Duration : 1h 17mn
Bit rate mode : Constant
Bit rate : 192 Kbps
Channel(s) : 2 channels
Channel positions : Front: L R
Sampling rate : 48.0 KHz
Bit depth : 16 bits
Compression mode : Lossy
Stream size : 106 MiB (5%)
Language : English
Default : Yes
Forced : No


Enlace: ed2k://|file|1955.%20Murder%20is%20my%20Beat%20(Edgar%20G.%20Ulmer).mkv|2049641486|1A80E0B323D860FB847F4866A787D963|h=7KBJPZP36OD5VOXDG4GQAKNBTDT53DQS|/

Subtítulos castellanos de Arqlexdelcine en descarga directa: http://www.subdivx.com/X6XNDg2NDM3X-mur ... -1955.html

Vistas: 49  •  Comentarios: 4  •  Escribir comentario [ Atras ]

  • ¿Quién está conectado?
  • Hay 9 Usuarios identificados :: 0 registrado, 0 ocultos y 9 invitados (basados en usuarios activos en los últimos 5 minutos)
    La mayor cantidad de usuarios identificados fue 91 el 25 Feb 2017, 15:04

    Usuarios registrados: No hay usuarios registrados visitando el Foro





  •  Cinefórum-Clásico recomienda

  •  Cinefórum-Clásico recomienda

  •  Cinefórum-Clásico recomienda
  • Imagen

    Imagen

    Imagen

    Imagen

    Imagen

    Revistas de Cine por Franxesco
    (clic en cada imagen)