•  Ci-Cl Archivo
  • Imagen

    Archivo Cine-Clásico
    Acceso público

  •  Cumpleaños

  •  Buscar
  • Búsqueda avanzada


  •  Últimos miembros

  •  Estilo del foro


  •  Estadísticas
  • Totales
    Mensajes totales 157570
    Temas totales 12696
    Anuncios totales: 72
    Fijos totales: 24
    Adjuntos totales: 0

    Temas por día: 8
    Mensajes por día: 95
    Usuarios por día: 3
    Temas por usuario: 2
    Mensajes por usuario: 30
    Mensajes por tema: 12

    Usuarios totales 5230
    Nuestro Miembro más reciente es marisol631

  •  Enlace con nosotros
  • Por favor, siéntase libre de enlazar a . Utilice el siguiente código HTML:



Imagen
Sims
Cinefórum-Clásico es un foro de cine P2P, que utiliza las redes KAD (eMule)

Bienvenidos

Ver último mensaje The Tall T (Budd Boetticher, 1957) WEBRip 720p Dual SE


Nuevo encode (WEBRip) sin rastro de logo y con una imagen mas consistente.

The tall T

Budd Boetticher, 1957



Imagen


Imagen

Los cautivos

Título original The Tall T
Año 1957
Duración 78 min.
País Imagen
Director Budd Boetticher
Guión Burt Kennedy (Historia: Elmore Leonard)
Música Heinz Roemheld
Fotografía Charles Lawton Jr.
Reparto
Randolph Scott, Richard Boone, Maureen O'Sullivan, Skip Homeier, Henry Silva, John Hubbard, Arthur Hunnicutt

Productora Columbia Pictures
Género Western
Sinopsis
Pat Brennan es un veterano vaquero que ha decidido establecerse por su cuenta en una granja. Un día se cruza con la diligencia que conduce su amigo Ed; en ella viaja el peculiar matrimonio formado por Doretta, hija de un rico hacendado y el antipático Willard. Poco después, un grupo de bandidos ataca la diligencia. Considerada el mejor western de Boetticher. (FILMAFFINITY)







Agradecimientos al Grupo Cine Clasico por compartir el audio y sub castizos, que son los que he utilizado para la sincro.



Comparativa WEBRip 720p Vs HDTV (antiguo 720p)

Imagen
Imagen


Code: Seleccionar todo
General
Unique ID                                : 190824563430645061197091452012998527347 (0x8F8F795D8A7510DEB425F0C3FDD98973)
Complete name                            : C:\Program Files (x86)\eMule\Incoming\1957-The.Tall.T.WEBRip.720p.AC3[DMMD].mkv
Format                                   : Matroska
Format version                           : Version 4 / Version 2
File size                                : 3.77 GiB
Duration                                 : 1 h 17 min
Overall bit rate                         : 6 962 kb/s
Movie name                               : 1957-The.Tall.T.WEBRip.720p.AC3[DMMD]
Encoded date                             : UTC 2017-03-05 14:43:37
Writing application                      : mkvmerge v9.7.0 ('Numbers') 64bit
Writing library                          : libebml v1.3.4 + libmatroska v1.4.5
Attachments                              : 1 / 16500.jpg

Video
ID                                       : 1
Format                                   : AVC
Format/Info                              : Advanced Video Codec
Format profile                           : High@L4.1
Format settings, CABAC                   : Yes
Format settings, ReFrames                : 9 frames
Codec ID                                 : V_MPEG4/ISO/AVC
Duration                                 : 1 h 17 min
Bit rate                                 : 6 543 kb/s
Width                                    : 1 280 pixels
Height                                   : 720 pixels
Display aspect ratio                     : 16:9
Frame rate mode                          : Constant
Frame rate                               : 23.976 FPS
Color space                              : YUV
Chroma subsampling                       : 4:2:0
Bit depth                                : 8 bits
Scan type                                : Progressive
Bits/(Pixel*Frame)                       : 0.296
Stream size                              : 3.55 GiB (94%)
Writing library                          : x264 core 148 r2744kMod b97ae06
Encoding settings                        : cabac=1 / ref=9 / deblock=1:-3:-3 / analyse=0x3:0x133 / me=umh / subme=11 / psy=1 / fade_compensate=0.00 / psy_rd=1.00:0.00 / mixed_ref=1 / me_range=32 / chroma_me=1 / trellis=2 / 8x8dct=1 / cqm=0 / deadzone=21,11 / fast_pskip=0 / chroma_qp_offset=-2 / threads=6 / lookahead_threads=1 / sliced_threads=0 / nr=0 / decimate=0 / interlaced=0 / bluray_compat=0 / constrained_intra=0 / bframes=8 / b_pyramid=2 / b_adapt=2 / b_bias=0 / direct=3 / weightb=1 / open_gop=0 / weightp=2 / keyint=250 / keyint_min=23 / scenecut=40 / intra_refresh=0 / rc=2pass / mbtree=0 / bitrate=6543 / ratetol=1.0 / qcomp=0.60 / qpmin=0 / qpmax=69 / qpstep=4 / cplxblur=20.0 / qblur=0.5 / ip_ratio=1.40 / pb_ratio=1.30 / aq=1:0.50
Language                                 : English
Default                                  : Yes
Forced                                   : No

Audio #1
ID                                       : 2
Format                                   : E-AC-3
Format/Info                              : Enhanced Audio Coding 3
Format settings, Endianness              : Big
Codec ID                                 : A_EAC3
Duration                                 : 1 h 17 min
Bit rate mode                            : Constant
Bit rate                                 : 224 kb/s
Channel(s)                               : 2 channels
Channel positions                        : Front: L R
Sampling rate                            : 48.0 kHz
Frame rate                               : 187.500 FPS (256 spf)
Compression mode                         : Lossy
Stream size                              : 124 MiB (3%)
Language                                 : English
Service kind                             : Complete Main
Default                                  : No
Forced                                   : No

Audio #2
ID                                       : 3
Format                                   : AC-3
Format/Info                              : Audio Coding 3
Format settings, Endianness              : Big
Codec ID                                 : A_AC3
Duration                                 : 1 h 17 min
Bit rate mode                            : Constant
Bit rate                                 : 192 kb/s
Channel(s)                               : 2 channels
Channel positions                        : Front: L R
Sampling rate                            : 48.0 kHz
Frame rate                               : 31.250 FPS (1536 spf)
Bit depth                                : 16 bits
Compression mode                         : Lossy
Stream size                              : 107 MiB (3%)
Language                                 : Spanish
Service kind                             : Complete Main
Default                                  : No
Forced                                   : No

Text #1
ID                                       : 4
Format                                   : UTF-8
Codec ID                                 : S_TEXT/UTF8
Codec ID/Info                            : UTF-8 Plain Text
Duration                                 : 1 h 16 min
Bit rate                                 : 50 b/s
Count of elements                        : 685
Stream size                              : 28.2 KiB (0%)
Language                                 : Spanish
Default                                  : No
Forced                                   : No

Text #2
ID                                       : 5
Format                                   : UTF-8
Codec ID                                 : S_TEXT/UTF8
Codec ID/Info                            : UTF-8 Plain Text
Duration                                 : 1 h 15 min
Bit rate                                 : 54 b/s
Count of elements                        : 955
Stream size                              : 29.9 KiB (0%)
Language                                 : English
Default                                  : No
Forced                                   : No

Text #3
ID                                       : 6
Format                                   : UTF-8
Codec ID                                 : S_TEXT/UTF8
Codec ID/Info                            : UTF-8 Plain Text
Duration                                 : 1 h 15 min
Bit rate                                 : 55 b/s
Count of elements                        : 1000
Stream size                              : 30.5 KiB (0%)
Title                                    : SDH
Language                                 : English
Default                                  : No
Forced                                   : No

Menu
00:00:00.000                             : en:Chapter 1
00:05:30.533                             : en:Chapter 2
00:13:29.367                             : en:Chapter 3
00:18:15.533                             : en:Chapter 4
00:21:48.699                             : en:Chapter 5
00:30:15.366                             : en:Chapter 6
00:35:04.033                             : en:Chapter 7
00:44:48.867                             : en:Chapter 8
00:52:05.200                             : en:Chapter 9
00:58:02.200                             : en:Chapter 10
01:05:51.533                             : en:Chapter 11
01:11:18.200                             : en:Chapter 12





CAPTURAS

Imagen
Imagen
Imagen
Imagen
Imagen
Imagen



Enlaces de descarga

Imagen

ed2k://|file|1957-The.Tall.T.WEBRip.720p.AC3[DMMD].mkv|4051195933|D7CBFED4A541EDDC7FB68C2378F0E1CA|h=HVXPOK4FJ4Z7XMEJNE7B67GDD44NCUIB|/


Una menos


:mrgreen:

Forrest Gump escribió:
Por lo tanto, te pregunto si piensas renovar el ciclo completo:

Seven Men from Now. USA 1956. D: Budd Boetticher. P: Andrew V. McLaglen y Robert E. Morrison para Batjac/WB. G: Burt Kennedy. F: William H. Clothier. M: Henry Vars. I: Randolph Scott, Gail Russell, Lee Marvin, Walter Reed, John Larch, Donald Barry.

Decision at Sundown. USA 1957. D: Budd Boetticher. P: Harry Joe Brown para Scott/Brown Prod. G: Charles Lang. F: Burnett Guffey. I: Randolph Scott, John Carroll, Karen Steele, Noah Beery Jr, John Archer, Valerie French.

Buchanan Rides Alone. USA 1958. D: Budd Boetticher. P: Harry Joe Brown para Scott-Brown Prod./Columbia. G: Charles Lang, s. la serie de novelas "Buchanan". F: Lucien Ballard. I: Randolph Scott, Craig Stevens, Barry Kelley, Tol Avery, Manuel Rojas, Peter Whitney.

Westbound. USA 1959. D: Budd Boetticher. P: Henry Blanke para WB. G: Berne Giler y Albert Shelby LeVino. F: J. Peverell Marley. I: Randolph Scott, Virginia Mayo, Karen Steele, Andrew Duggan, Michael Pate, Michael Dante.

Comanche Station. USA 1960. D/P: Budd Boetticher para Ranown/Columbia. G: Burt Kennedy. F: Charles Lawton Jr. I: Randolph Scott, Nancy Gates, Claude Akins, Skip Homeier, Richard Rust, Rand Brooks.



¿Cual será la próxima? :roll:



Ciclo Ranown. Budd Boetticher

Ride Lonesome (Budd Boetticher, 1959) HDTVRip 720p Dual SE

The tall T (Budd Boetticher, 1957) HDTVRip 720p Dual SE

Comanche Station (Budd Boetticher, 1960) HDTVRip 720p Dual SE

Buchanan Rides Alone (Budd Boetticher, 1958) HDTVRip 720p Dual SE

Decision at Sundown (Budd Boetticher, 1957) HDTVRip 720p Dual SE


Imagen

Vistas: 157  •  Comentarios: 7  •  Escribir comentario [ Atras ]

  • ¿Quién está conectado?
  • Hay 11 Usuarios identificados :: 7 registrados, 2 ocultos y 2 invitados (basados en usuarios activos en los últimos 5 minutos)
    La mayor cantidad de usuarios identificados fue 91 el 25 Feb 2017, 16:04

    Usuarios registrados: anbl2, carioco, jartziegan, Jose Julio, Olaba, tonapar1, VitoVitelly





  •  Cinefórum-Clásico recomienda

  •  Cinefórum-Clásico recomienda

  •  Cinefórum-Clásico recomienda
  • Imagen

    Imagen

    Imagen

    Imagen

    Imagen

    Revistas de Cine por Franxesco
    (clic en cada imagen)