•  Ci-Cl Archivo
  • Imagen

    Archivo Cine-Clásico
    Acceso público

  •  Cumpleaños

  •  Buscar
  • Búsqueda avanzada


  •  Últimos miembros

  •  Estilo del foro


  •  Estadísticas
  • Totales
    Mensajes totales 170428
    Temas totales 13380
    Anuncios totales: 72
    Fijos totales: 34
    Adjuntos totales: 0

    Temas por día: 7
    Mensajes por día: 93
    Usuarios por día: 3
    Temas por usuario: 3
    Mensajes por usuario: 32
    Mensajes por tema: 13

    Usuarios totales 5287
    Nuestro Miembro más reciente es juliomario123

  •  Enlace con nosotros
  • Por favor, siéntase libre de enlazar a . Utilice el siguiente código HTML:



Imagen
Sims
Cinefórum-Clásico es un foro de cine que utiliza las redes KAD (eMule)

Bienvenidos

Ver último mensaje País S.A. (Antonio Fraguas 'Forges', 1975) SATRip VO


País S.A.
1975

Imagen

Imagen


DIRECTOR: Antonio Fraguas 'Forges'
PRODUCTORA: Alexandra Films S.A / Impala
GUIÓN: Antonio Fraguas 'Forges', Ramón de Diego
MÚSICA: Diego, Victor
FOTOGRAFÍA: José Luis Alcaine



ARGUMENTO Don Luis es millonario, tiene 52 años y dirige una empresa. Se siente amenazado cuando van a inspeccionar los libros de cuentas y el funcionamiento de su compañía, que está en huelga. (FILMAFFINITY) IMDB: http://www.imdb.com/title/tt0073522/


Reparto: María Luisa San José, Manolo Zarzo, Fernando Delgado, Paco Algora, Antonio Gamero, Roberto Font, Encarna Paso, José Ruiz Lifante, Loreta Tovar, Rafaela Aparicio



Datos Técnicos:


Code: Seleccionar todo
General:
Complete name                    : 1975 País S.A. (Antonio Fraguas Forges, 1975) SATRip VO by DCINE.mkv
Format                           : Matroska
Format version                   : Version 4 / Version 2
File size                        : 1.04 GiB
Duration                         : 1h 23mn
Overall bit rate                 : 1 783 Kbps
Movie name                       : 1975 País S.A. (Antonio Fraguas "Forges", 1975) SATRip VO by DCINE
Encoded date                     : UTC 2017-09-15T13:57:08Z
Writing application              : mkvmerge v7.1.0 ('Good Love') 32bit built on Jul 27 2014 12:59:18
Writing library                  : Lavf54.63.104

Video
ID                               : 1
Format                           : AVC
Format/Info                      : Advanced Video Codec
Format profile                   : High@L4.1
Format settings, CABAC           : Yes
Format settings, ReFrames        : 4 frames
Codec ID                         : V_MPEG4/ISO/AVC
Duration                         : 1h 23mn
Bit rate                         : 1 555 Kbps
Width                            : 720 pixels
Height                           : 570 pixels
Display aspect ratio             : 16:9
Frame rate mode                  : Variable
Frame rate                       : 25.000 fps
Color space                      : YUV
Chroma subsampling               : 4:2:0
Bit depth                        : 8 bits
Scan type                        : Progressive
Bits/(Pixel*Frame)               : 0.152
Stream size                      : 926 MiB (87%)
Writing library                  : x264 core 142 r2479 dd79a61
Encoding settings                : cabac=1 / ref=3 / deblock=1:0:0 / analyse=0x3:0x113 / me=hex / subme=7 / psy=1 / psy_rd=1.00:0.00 / mixed_ref=1 / me_range=16 / chroma_me=1 / trellis=1 / 8x8dct=1 / cqm=0 / deadzone=21,11 / fast_pskip=1 / chroma_qp_offset=-2 / threads=1 / lookahead_threads=1 / sliced_threads=0 / nr=0 / decimate=1 / interlaced=0 / bluray_compat=0 / constrained_intra=0 / bframes=3 / b_pyramid=2 / b_adapt=1 / b_bias=0 / direct=1 / weightb=1 / open_gop=0 / weightp=2 / keyint=250 / keyint_min=25 / scenecut=40 / intra_refresh=0 / rc_lookahead=40 / rc=crf / mbtree=1 / crf=19.0 / qcomp=0.60 / qpmin=0 / qpmax=69 / qpstep=4 / vbv_maxrate=62500 / vbv_bufsize=78125 / crf_max=0.0 / nal_hrd=none / filler=0 / ip_ratio=1.40 / aq=1:1.00
Language                         : Spanish
Default                          : Yes
Forced                           : No
DURATION                         : 01:23:12.840000000
NUMBER_OF_FRAMES                 : 124821
NUMBER_OF_BYTES                  : 991630723
_STATISTICS_WRITING_APP          : mkvmerge v7.1.0 ('Good Love') 32bit built on Jul 27 2014 12:59:18
_STATISTICS_WRITING_DATE_UTC     : 2017-09-15 18:20:55
_STATISTICS_TAGS                 : BPS DURATION NUMBER_OF_FRAMES NUMBER_OF_BYTES
Color primaries                  : BT.470-6 System B, BT.470-6 System G, BT.601-6 625, BT.1358 625, BT.1700 625 PAL, BT.1700 625 SECAM
Transfer characteristics         : BT.709-5, BT.1361
Matrix coefficients              : BT.601-6 525, BT.1358 525, BT.1700 NTSC, SMPTE 170M

Audio
ID                               : 2
Format                           : MPEG Audio
Format version                   : Version 1
Format profile                   : Layer 2
Codec ID                         : A_MPEG/L2
Codec ID/Hint                    : MP2
Duration                         : 1h 23mn
Bit rate mode                    : Constant
Bit rate                         : 192 Kbps
Channel(s)                       : 2 channels
Sampling rate                    : 48.0 KHz
Compression mode                 : Lossy
Delay relative to video          : -58ms
Stream size                      : 114 MiB (11%)
Language                         : Spanish
Default                          : Yes
Forced                           : No
DURATION                         : 01:23:12.960000000
NUMBER_OF_FRAMES                 : 208040
NUMBER_OF_BYTES                  : 119831040
_STATISTICS_WRITING_APP          : mkvmerge v7.1.0 ('Good Love') 32bit built on Jul 27 2014 12:59:18
_STATISTICS_WRITING_DATE_UTC     : 2017-09-15 18:20:55
_STATISTICS_TAGS                 : BPS DURATION NUMBER_OF_FRAMES NUMBER_OF_BYTES





Capturas:

Imagen
Imagen
Imagen
Imagen
Imagen
Imagen
Imagen

Enlace:

ed2k://|file|1975%20Pa%C3%ADs%20S.A.%20(Antonio%20Fraguas%20Forges,%201975)%20SATRip%20VO%20by%20DCINE.mkv|1112604920|579003823672299D0F8095A32A4F28EC|h=HIWEIECMLCUMK77Q3GSBTW5NWXFPMBK6|/


DD: https://mega.nz/#!wwZXxKxL!cApRuk_Wgsyq ... js8W_Whx1A

Vistas: 93  •  Comentarios: 3  •  Escribir comentario [ Atras ]

  • ¿Quién está conectado?
  • Hay 7 Usuarios identificados :: 0 registrado, 0 ocultos y 7 invitados (basados en usuarios activos en los últimos 5 minutos)
    La mayor cantidad de usuarios identificados fue 91 el 25 Feb 2017, 16:04

    Usuarios registrados: No hay usuarios registrados visitando el Foro





  •  Cinefórum-Clásico recomienda

  •  Cinefórum-Clásico recomienda

  •  Cinefórum-Clásico recomienda
  • Imagen

    Imagen

    Imagen

    Imagen

    Imagen

    Revistas de Cine por Franxesco
    (clic en cada imagen)