•  Ci-Cl Archivo
  • Imagen

    Archivo Cine-Clásico
    Acceso público

  •  Cumpleaños

  •  Buscar
  • Búsqueda avanzada


  •  Últimos miembros

  •  Estilo del foro


  •  Estadísticas
  • Totales
    Mensajes totales 175677
    Temas totales 13649
    Anuncios totales: 72
    Fijos totales: 34
    Adjuntos totales: 0

    Temas por día: 7
    Mensajes por día: 92
    Usuarios por día: 3
    Temas por usuario: 3
    Mensajes por usuario: 33
    Mensajes por tema: 13

    Usuarios totales 5316
    Nuestro Miembro más reciente es DODGETERO

  •  Enlace con nosotros
  • Por favor, siéntase libre de enlazar a . Utilice el siguiente código HTML:



Imagen
mifune

Cinefórum-Clásico es un foro de cine que utiliza las redes KAD (eMule)

Bienvenidos

Ver último mensaje Downhill (Alfred Hitchcock, 1927) BDRip VOSE

1, 2

DOWNHILL
(1927)


Imagen

IMDb


Producción
Gainsborough Pictures

Director
Alfred Hitchcock

Guión
Eliot Stannard

Argumento
La obra de
Ivor Novello y Constance Collier

Intérpretes
Ivor Novello
Isabel Jeans
Lilian Braithwaite
Ian Hunter
Norman McKinnel
Ben Webster
Robin Irvine


Roddy (Ivor Novello), primogénito de la rica familia Berwick, es expulsado del instituto acusado de haber ultrajado a una mujer y su padre le repudia. Entonces decide ir a París donde se gasta el último dinero que le queda y comienza a trabajar como bailarín. (FILMAFFINITY)


Ripeo procedente de Rutracker.

Downhill esconde el anticipo del esquema del film "de persecución" hitchcockiano desarrollado en clave moral. El equívoco se impone ya como resorte de la fatalidad, como motor que impulsa el descenso a los infiernos de la desesperación, de la "caída". Este "descenso" al que más o menos alude el título es, efectivamente, un descenso moral, que el film enlaza además con un descenso físico y geográfico (de Inglaterra a París, de París a Marsella, de Marsella a una supuesta Sudáfrica...) que el realizador se encarga de enfatizar con su planificación y su manera de encuadrar, bien atenta ya a la mostración no sólo de una acción sino del concepto que le corresponde.
Enrique Alberich



Imagen


Datos técnicos:
Code: Seleccionar todo

General
Complete name               : Downhill.1927.BDRip.XviD.AC3.-HQCLUB.avi
Format                      : AVI
Format/Info                 : Audio Video Interleave
File size                   : 1.45 GiB
Duration                    : 1 h 45 min
Overall bit rate            : 1 971 kb/s
Writing application         : VirtualDubMod 1.5.10.2 (build 2540/release)
Copyright                   : http://hqclub.net/
Comment                     : 10.01.2014

Video
ID                          : 0
Format                      : MPEG-4 Visual
Format profile              : Advanced Simple@L5
Format settings, BVOP       : 1
Format settings, QPel       : No
Format settings, GMC        : No warppoints
Format settings, Matrix     : Custom
Codec ID                    : XVID
Codec ID/Hint               : XviD
Duration                    : 1 h 45 min
Bit rate                    : 1 769 kb/s
Width                       : 704 pixels
Height                      : 528 pixels
Display aspect ratio        : 4:3
Frame rate                  : 24.000 FPS
Color space                 : YUV
Chroma subsampling          : 4:2:0
Bit depth                   : 8 bits
Scan type                   : Progressive
Compression mode            : Lossy
Bits/(Pixel*Frame)          : 0.198
Stream size                 : 1.30 GiB (90%)
Writing library             : XviD 65

Audio
ID                          : 1
Format                      : AC-3
Format/Info                 : Audio Coding 3
Format settings, Endianness : Big
Codec ID                    : 2000
Duration                    : 1 h 45 min
Bit rate mode               : Constant
Bit rate                    : 192 kb/s
Channel(s)                  : 2 channels
Channel positions           : Front: L R
Sampling rate               : 48.0 kHz
Frame rate                  : 31.250 FPS (1536 SPF)
Bit depth                   : 16 bits
Compression mode            : Lossy
Stream size                 : 145 MiB (10%)
Alignment                   : Split accross interleaves
Interleave, duration        : 42  ms (1.00 video frame)
Interleave, preload duratio : 500  ms
Service kind                : Complete Main



Imagen
Imagen
Imagen
Imagen
Imagen


ed2k://|file|Downhill.1927.BDRip.XviD.AC3.-HQCLUB.avi|1557268480|9E282A1447879C4309ECE094597A74A6|h=BUEHLLMMYCMGKXUQ5RRNPXD6LCABP5I7|/

Subtítulos en español subidos por Rynat:
https://www.subdivx.com/X6XNTE0MDgzX

Vistas: 174  •  Comentarios: 10  •  Escribir comentario [ Atras ]

  • ¿Quién está conectado?
  • Hay 13 Usuarios identificados :: 4 registrados, 1 oculto y 8 invitados (basados en usuarios activos en los últimos 5 minutos)
    La mayor cantidad de usuarios identificados fue 91 el 25 Feb 2017, 15:04

    Usuarios registrados: Bing [Bot], fifole, mifune, victor1949





  •  Cinefórum-Clásico recomienda

  •  Cinefórum-Clásico recomienda

  •  Cinefórum-Clásico recomienda
  • Imagen

    Imagen

    Imagen

    Imagen

    Imagen

    Revistas de Cine por Franxesco
    (clic en cada imagen)