•  Ci-Cl Archivo
  • Imagen

    Archivo Cine-Clásico
    Acceso público

  •  Cumpleaños

  •  Buscar
  • Búsqueda avanzada


  •  Últimos miembros

  •  Estilo del foro


  •  Estadísticas
  • Totales
    Mensajes totales 168258
    Temas totales 13243
    Anuncios totales: 72
    Fijos totales: 34
    Adjuntos totales: 0

    Temas por día: 7
    Mensajes por día: 93
    Usuarios por día: 3
    Temas por usuario: 3
    Mensajes por usuario: 32
    Mensajes por tema: 13

    Usuarios totales 5273
    Nuestro Miembro más reciente es orbtwin

  •  Enlace con nosotros
  • Por favor, siéntase libre de enlazar a . Utilice el siguiente código HTML:



Imagen
Bunker
Cinefórum-Clásico es un foro de cine que utiliza las redes KAD (eMule)

Bienvenidos

Ver último mensaje Tenemos 18 años (Jesús Franco, 1959) SATRip VO


A Terele Pávez

Tenemos 18 años
1959

Imagen
Imagen

Imagen


DIRECTOR: Jesús Franco
PRODUCTORA: Auster Films
GUIÓN: Jesús Franco
MÚSICA: Jesús Franco
FOTOGRAFÍA: Eloy Mella


ARGUMENTO Incitadas por su primo, dos adolescentes emprenden un viaje en el que esperan vivir todo tipo de aventuras. Al no conseguirlo, optan por imaginárselas y terminan creyendo que han sido secuestradas y encerradas en un siniestro castillo. (FILMAFFINITY) IMDB: http://www.imdb.com/title/tt0053342/



Reparto: Isana Medel, Terele Pávez, Antonio Ozores, Luis Peña, Mercedes Alonso, Rafael Bardem, Carmen Lozano, Licia Calderón, Javier García, María Luisa Ponte, Pablo Sanz, Aníbal Vela, Juan José Vidal, Rufino Inglés


Datos Técnicos:

Code: Seleccionar todo
General:

Complete name                    : 1959 Tenemos 18 años (Jesús Franco, 1959) SATRip VO RTVE by droid-DCINE.mkv
Format                           : Matroska
Format version                   : Version 4 / Version 2
File size                        : 1.46 GiB
Duration                         : 1h 12mn
Overall bit rate                 : 2 882 Kbps
Encoded date                     : UTC 2017-06-26T16:24:58Z
Writing application              : mkvmerge v7.1.0 ('Good Love') 32bit built on Jul 27 2014 12:59:18
Writing library                  : Lavf54.63.104

Video
ID                               : 1
Format                           : AVC
Format/Info                      : Advanced Video Codec
Format profile                   : High@L4.1
Format settings, CABAC           : Yes
Format settings, ReFrames        : 4 frames
Codec ID                         : V_MPEG4/ISO/AVC
Duration                         : 1h 12mn
Bit rate                         : 2 633 Kbps
Width                            : 716 pixels
Height                           : 570 pixels
Display aspect ratio             : 4:3
Frame rate mode                  : Variable
Frame rate                       : 25.000 fps
Color space                      : YUV
Chroma subsampling               : 4:2:0
Bit depth                        : 8 bits
Scan type                        : Progressive
Bits/(Pixel*Frame)               : 0.258
Stream size                      : 1.34 GiB (91%)
Writing library                  : x264 core 142 r2479 dd79a61
Encoding settings                : cabac=1 / ref=3 / deblock=1:-1:-1 / analyse=0x3:0x113 / me=hex / subme=7 / psy=1 / psy_rd=1.00:0.15 / mixed_ref=1 / me_range=16 / chroma_me=1 / trellis=1 / 8x8dct=1 / cqm=0 / deadzone=21,11 / fast_pskip=1 / chroma_qp_offset=-3 / threads=1 / lookahead_threads=1 / sliced_threads=0 / nr=0 / decimate=1 / interlaced=0 / bluray_compat=0 / constrained_intra=0 / bframes=3 / b_pyramid=2 / b_adapt=1 / b_bias=0 / direct=1 / weightb=1 / open_gop=0 / weightp=2 / keyint=250 / keyint_min=25 / scenecut=40 / intra_refresh=0 / rc_lookahead=40 / rc=crf / mbtree=1 / crf=20.0 / qcomp=0.60 / qpmin=0 / qpmax=69 / qpstep=4 / vbv_maxrate=62500 / vbv_bufsize=78125 / crf_max=0.0 / nal_hrd=none / filler=0 / ip_ratio=1.40 / aq=1:1.00
Language                         : Spanish
Default                          : Yes
Forced                           : No
DURATION                         : 01:12:43.200000000
NUMBER_OF_FRAMES                 : 109080
NUMBER_OF_BYTES                  : 1466311700
_STATISTICS_WRITING_APP          : mkvmerge v7.1.0 ('Good Love') 32bit built on Jul 27 2014 12:59:18
_STATISTICS_WRITING_DATE_UTC     : 2017-06-26 20:28:44
_STATISTICS_TAGS                 : BPS DURATION NUMBER_OF_FRAMES NUMBER_OF_BYTES
Color primaries                  : BT.470-6 System B, BT.470-6 System G, BT.601-6 625, BT.1358 625, BT.1700 625 PAL, BT.1700 625 SECAM
Transfer characteristics         : BT.709-5, BT.1361
Matrix coefficients              : BT.601-6 525, BT.1358 525, BT.1700 NTSC, SMPTE 170M

Audio
ID                               : 2
Format                           : MPEG Audio
Format version                   : Version 1
Format profile                   : Layer 2
Codec ID                         : A_MPEG/L2
Codec ID/Hint                    : MP2
Duration                         : 1h 12mn
Bit rate mode                    : Constant
Bit rate                         : 192 Kbps
Channel(s)                       : 2 channels
Sampling rate                    : 48.0 KHz
Compression mode                 : Lossy
Delay relative to video          : 208ms
Stream size                      : 99.9 MiB (7%)
Language                         : Spanish
Default                          : Yes
Forced                           : No
DURATION                         : 01:12:43.032000000
NUMBER_OF_FRAMES                 : 181793
NUMBER_OF_BYTES                  : 104712768
_STATISTICS_WRITING_APP          : mkvmerge v7.1.0 ('Good Love') 32bit built on Jul 27 2014 12:59:18
_STATISTICS_WRITING_DATE_UTC     : 2017-06-26 20:28:44
_STATISTICS_TAGS                 : BPS DURATION NUMBER_OF_FRAMES NUMBER_OF_BYTES





Capturas:

Imagen
Imagen
Imagen
Imagen

Enlace: (Mi ripeo sobre la grabación en .ts de droid)

ed2k://|file|1959%20Tenemos%2018%20a%C3%B1os%20(Jes%C3%BAs%20Franco,%201959)%20SATRip%20VO%20RTVE%20by%20droid-DCINE.mkv|1572053434|6566826F5597F92A84DE66B3489B3CC2|h=R44LJAZN2HZQNFIPFJZEQWV6VW7K55CO|/

Vistas: 154  •  Comentarios: 7  •  Escribir comentario [ Atras ]

  • ¿Quién está conectado?
  • Hay 16 Usuarios identificados :: 2 registrados, 1 oculto y 13 invitados (basados en usuarios activos en los últimos 5 minutos)
    La mayor cantidad de usuarios identificados fue 91 el 25 Feb 2017, 16:04

    Usuarios registrados: leonidas, yojimbo





  •  Cinefórum-Clásico recomienda

  •  Cinefórum-Clásico recomienda

  •  Cinefórum-Clásico recomienda
  • Imagen

    Imagen

    Imagen

    Imagen

    Imagen

    Revistas de Cine por Franxesco
    (clic en cada imagen)