•  Ci-Cl Archivo
  • Imagen

    Archivo Cine-Clásico
    Acceso público

  •  Cumpleaños

  •  Buscar
  • Búsqueda avanzada


  •  Últimos miembros

  •  Estilo del foro


  •  Estadísticas
  • Totales
    Mensajes totales 162468
    Temas totales 12947
    Anuncios totales: 72
    Fijos totales: 24
    Adjuntos totales: 0

    Temas por día: 8
    Mensajes por día: 95
    Usuarios por día: 3
    Temas por usuario: 2
    Mensajes por usuario: 31
    Mensajes por tema: 13

    Usuarios totales 5252
    Nuestro Miembro más reciente es Diana Gaztelu

  •  Enlace con nosotros
  • Por favor, siéntase libre de enlazar a . Utilice el siguiente código HTML:



Imagen
Sims

Cinefórum-Clásico es un foro de cine que utiliza las redes KAD (eMule)

Bienvenidos

Ver último mensaje Meet John Doe (Frank Capra, 1941) HDTVRip 720p Dual SE

1, 2

Meet John Doe

Frank Capra, 1941



Imagen

Imagen


Juan Nadie


Título original
Meet John Doe

Año
1941

Duración
122 min.

País Imagen
Director
Frank Capra

Guion
Robert Riskin (Historia: Richard Connell, Robert Presnell Sr.)

Música
Dimitri Tiomkin

Fotografía
George Barnes (B&W)

Reparto
Gary Cooper, Barbara Stanwyck, Edward Arnold, Walter Brennan, James Gleason, Ann Doran, Gene Lockhart, Regis Toomey, Spring Byington

Productora
Warner Bros Pictures / Liberty Films

Género
Drama | Periodismo. Drama social

Sinopsis
Cuando un magnate compra un periódico y despide a casi todo el personal, una intrépida periodista decide publicar una falsa e incendiaria carta que lleva la firma de Juan Nadie. En ella se anuncia el suicidio de uno de los empleados despedidos. El éxito del artículo es tal que el periódico decide crear un Juan Nadie y, con este fin, contrata a un vagabundo que acaba convirtiéndose en un personaje extraordinariamente popular. (FILMAFFINITY)

Premios
1941: Nominada al Oscar: Mejor historia


Vídeo:

- Encode a partir de una emisión televisiva con logo.


Code: Seleccionar todo
General
Unique ID                                : 173283152286733828234641557483746999785 (0x825D1F05F59C10FA97F3BEBA1DA3BDE9)
Complete name                            : C:\Program Files (x86)\eMule\Incoming\1941-Meet.John.Doe.HDTV.720px264.AAC[DMMD&santi].mkv
Format                                   : Matroska
Format version                           : Version 4 / Version 2
File size                                : 4.74 GiB
Duration                                 : 2 h 2 min
Overall bit rate                         : 5 517 kb/s
Movie name                               : 1941-Meet.John.Doe.HDTV.720px264.AAC[DMMD&santi]
Encoded date                             : UTC 2017-05-20 15:40:19
Writing application                      : mkvmerge v10.0.0 ('To Drown In You') 64bit
Writing library                          : libebml v1.3.4 + libmatroska v1.4.5
Attachments                              : 1 / 2 / 3 / 4 / 5

Video
ID                                       : 1
Format                                   : AVC
Format/Info                              : Advanced Video Codec
Format profile                           : High@L4.1
Format settings, CABAC                   : Yes
Format settings, ReFrames                : 11 frames
Codec ID                                 : V_MPEG4/ISO/AVC
Duration                                 : 2 h 2 min
Bit rate                                 : 5 107 kb/s
Width                                    : 964 pixels
Height                                   : 720 pixels
Display aspect ratio                     : 4:3
Frame rate mode                          : Constant
Frame rate                               : 23.976 (24000/1001) FPS
Color space                              : YUV
Chroma subsampling                       : 4:2:0
Bit depth                                : 8 bits
Scan type                                : Progressive
Bits/(Pixel*Frame)                       : 0.307
Stream size                              : 4.39 GiB (93%)
Writing library                          : x264 core 148 r2744kMod b97ae06
Encoding settings                        : cabac=1 / ref=11 / deblock=1:-3:-3 / analyse=0x3:0x133 / me=umh / subme=11 / psy=1 / fade_compensate=0.00 / psy_rd=1.00:0.00 / mixed_ref=1 / me_range=32 / chroma_me=1 / trellis=2 / 8x8dct=1 / cqm=0 / deadzone=21,11 / fast_pskip=0 / chroma_qp_offset=-2 / threads=6 / lookahead_threads=1 / sliced_threads=0 / nr=0 / decimate=0 / interlaced=0 / bluray_compat=0 / constrained_intra=0 / bframes=8 / b_pyramid=2 / b_adapt=2 / b_bias=0 / direct=3 / weightb=1 / open_gop=0 / weightp=2 / keyint=250 / keyint_min=25 / scenecut=40 / intra_refresh=0 / rc=crf / mbtree=0 / crf=19.0000 / qcomp=0.60 / qpmin=0 / qpmax=69 / qpstep=4 / ip_ratio=1.40 / pb_ratio=1.30 / aq=3:0.60
Default                                  : No
Forced                                   : No

Audio #1
ID                                       : 2
Format                                   : AAC
Format/Info                              : Advanced Audio Codec
Format profile                           : LC
Codec ID                                 : A_AAC
Duration                                 : 2 h 2 min
Bit rate                                 : 207 kb/s
Channel(s)                               : 2 channels
Channel positions                        : Front: L R
Sampling rate                            : 48.0 kHz
Frame rate                               : 46.875 FPS (1024 spf)
Compression mode                         : Lossy
Delay relative to video                  : 9 ms
Stream size                              : 182 MiB (4%)
Language                                 : English
Default                                  : Yes
Forced                                   : No

Audio #2
ID                                       : 3
Format                                   : AAC
Format/Info                              : Advanced Audio Codec
Format profile                           : LC
Codec ID                                 : A_AAC
Duration                                 : 2 h 2 min
Bit rate                                 : 199 kb/s
Channel(s)                               : 2 channels
Channel positions                        : Front: L R
Sampling rate                            : 48.0 kHz
Frame rate                               : 46.875 FPS (1024 spf)
Compression mode                         : Lossy
Stream size                              : 175 MiB (4%)
Title                                    : Doblaje para TVE de 1971
Language                                 : Spanish
Default                                  : No
Forced                                   : No

Text #1
ID                                       : 4
Format                                   : UTF-8
Codec ID                                 : S_TEXT/UTF8
Codec ID/Info                            : UTF-8 Plain Text
Duration                                 : 2 h 1 min
Bit rate                                 : 81 b/s
Count of elements                        : 1927
Stream size                              : 73.1 KiB (0%)
Language                                 : Spanish
Default                                  : No
Forced                                   : No

Text #2
ID                                       : 5
Format                                   : UTF-8
Codec ID                                 : S_TEXT/UTF8
Codec ID/Info                            : UTF-8 Plain Text
Duration                                 : 1 h 59 min
Bit rate                                 : 86 b/s
Count of elements                        : 1420
Stream size                              : 76.2 KiB (0%)
Language                                 : English
Default                                  : No
Forced                                   : No

Menu
00:00:00.000                             : en:Chapter 1
00:03:25.360                             : en:Chapter 2
00:14:51.120                             : en:Chapter 3
00:26:53.040                             : en:Chapter 4
00:31:38.560                             : en:Chapter 5
00:39:53.160                             : en:Chapter 6
00:42:37.400                             : en:Chapter 7
00:56:10.320                             : en:Chapter 8
01:11:48.600                             : en:Chapter 9
01:21:12.120                             : en:Chapter 10
01:34:11.720                             : en:Chapter 11
01:39:55.800                             : en:Chapter 12
01:52:48.000                             : en:Chapter 13
02:02:14.000                             : en:Chapter 14




HDTVRip (720p)

Imagen

Dvd UK (Ntsc)

Imagen

Dvd Wild Side (Pal)

Imagen

Dvd Versus (Pal)

Imagen


Dvd DeAplaneta (Pal)


Imagen


Agradecimiento a la gente de mundodvd por compartir las dos últimas comparativas.


Imagen

Audio:

Sincronización del audio en castellano por parte de Santi. (mil gracias)

Adelante maestro:

santiagoo escribió:
El doblaje que se ofrece es el doblaje para TVE de 1971, cedido hace siete años por Scaramouche en el antiguo ci-cl y readaptado para este ripeo. La fuente utilizada es el audio suelto de la mula que Theycame2001 sincronizó ya en su día para otra copia. Al nombrar esos nicks ahora inactivos entra un poco de nostalgia, aunque afortunadamente nos queda su trabajo en la mula, trabajo que a día de hoy aprovechamos con frecuencia.
Existen dos doblajes más al menos, uno no es malo, de 1991 para Antena3, pero este que se ofrece es muy superior. Pensaba haberlo insertado también pero digamos que lo dificultoso de la sincronización de este me ha "animado" :mrgreen: a abortar la operación. Y es que la fuente que aporta DMMD no se parece en nada a lo que teníamos por aquí, que aparte de ser simplemente infame en lo visual carecía de "microtrozos" a raudales.


Imagen



Para el audio en V.O el propio de la emisión televisiva.

Imagen


Subtitulos:

Tanto castellanos como ingleses de OpenSubtitles, sincro de las de aupa, perdí la cuenta de las resincronizaciones que tuve que efectuar.


CAPTURAS

Imagen
Imagen
Imagen
Imagen
Imagen
Imagen
Imagen



Enlaces de descarga

Imagen

ed2k://|file|1941-Meet.John.Doe.HDTV.720px264.AAC[DMMD&santi].mkv|5088403389|F3D4253BC419F878EB4440C95A26F4CA|h=L6LEXC4JYAGAUBZHELP3O2MRWATCEUZG|/




Imagen

Vistas: 281  •  Comentarios: 13  •  Escribir comentario [ Atras ]

  • ¿Quién está conectado?
  • Hay 17 Usuarios identificados :: 7 registrados, 3 ocultos y 7 invitados (basados en usuarios activos en los últimos 5 minutos)
    La mayor cantidad de usuarios identificados fue 91 el 25 Feb 2017, 16:04

    Usuarios registrados: anbl2, Angeluco, Bing [Bot], candas, icameback, Prudencio, xoseantpc





  •  Cinefórum-Clásico recomienda

  •  Cinefórum-Clásico recomienda

  •  Cinefórum-Clásico recomienda
  • Imagen

    Imagen

    Imagen

    Imagen

    Imagen

    Revistas de Cine por Franxesco
    (clic en cada imagen)