•  Ci-Cl Archivo
  • Imagen

    Archivo Cine-Clásico
    Acceso público

  •  Cumpleaños

  •  Buscar
  • Búsqueda avanzada


  •  Últimos miembros

  •  Estilo del foro


  •  Estadísticas
  • Totales
    Mensajes totales 150820
    Temas totales 12194
    Anuncios totales: 72
    Fijos totales: 24
    Adjuntos totales: 0

    Temas por día: 8
    Mensajes por día: 95
    Usuarios por día: 3
    Temas por usuario: 2
    Mensajes por usuario: 29
    Mensajes por tema: 12

    Usuarios totales 5193
    Nuestro Miembro más reciente es elaguainmovil

  •  Enlace con nosotros
  • Por favor, siéntase libre de enlazar a . Utilice el siguiente código HTML:



Imagen
mifune
¡Feliz Año Nuevo!
Cinefórum-Clásico es un foro de cine P2P, que utiliza las redes KAD (eMule)

Bienvenidos

Ver último mensaje Alla luce del sole (Roberto Faenza, 2005) DVDRip VOSE


Imagen

IMDB: http://www.imdb.com/title/tt0448197/
FILMAFFINITY: http://www.filmaffinity.com/es/film966878.html


Guión y dirección
Roberto Faenza

Música
Andrea Guerra

Fotografía
Italo Petriccione

Reparto
Luca Zingaretti ... Padre Giuseppe "Pino" Puglisi
Alessia Goria ... Suor Carolina Iavazzo
Corrado Fortuna ... Gregorio Porcaro
Giovanna Bozzolo ... Anita
Francesco Foti ... Filippo
Piero Nicosia ... Giuseppe
Lollo Franco ... Gaspare
Mario Giunta ... Saro
Pierlorenzo Randazzo ... Domenico
Gabriele Castagna ... Rosario
Salvo Scelta ... Carmelo

Productora
Cinecittà / Jean Vigo Italia / Mikado Film / Ministero per i Beni e le Attività Culturali (MiBAC) / Rai Cinema
Género
Drama | Mafia. Religión. Basado en hechos reales
Sinopsis
El padre Puglisi es sacerdote de una parroquía controlada por la mafia de Palermo. Ayuda a los niños más desfavorecidos y ha convertido su iglesia en un refugio para la esperanza y la honradez. Naturalmente, sus conflictos con la mafia son constantes, pero él no está dispuesto a rendirse.

Premios
2004: Premios David di Donatello: Premio David de la Juventud. 5 nominaciones
2005: Nominada en los Premios del Cine Europeo: Mejor director
2005: Festival Internacional Karlovy Vary: Mejor actor (Luca Zingaretti)

Críticas
Son necesarios films como éste. Honesto, sincero y sentido. En la mejor tradición del cine social italiano. Bien realizado con un guión eficaz con una progresión dramática hasta el climax final. Buena interpretación de Luca Zingaretti, " El Comisario Montalbano" de la serie que abunda en la temática siciliana. De alguna manera, un homenaje al neorrealismo que evoca "Roma cittá aperta" de Rossellini, salvando todas las distancias. (rocamadur01 en Filmaffinity)
--------------------------------------------------------------------------------------------------------------------------------------------
La storia di padre Pino Puglisi, il parroco del quartiere Brancaccio di Palermo, ucciso dalla mafia il 15 settembre 1993. Un uomo che «sparava» dritto, dovere inflessibile nella denuncia e alieno da ogni compromesso. Con gesti concreti, dedicandosi al recupero dei bambini del quartiere per sottrarli alla mafia, padre Puglisi diventa una presenza scomoda, un simbolo, un freno alla corruzione. Faenza sa bene, mentre affronta questo tema, i rischi che corre: lo stereotipo, la sovrapposizione dell'attore protagonista (che deve liberarsi da Montalbano) al personaggio, l'allineamento alla fiction televisiva. Quello che lo muove è la descrizione di un ambiente, e di come un uomo abbia cercato di sottrarre all'influenza del male proprio i più deboli ed esposti di tutti: i bambini. E' un'attenzione, questa di Faenza, già manifestata in quello che resta il suo film migliore: "Jona che visse nella balena". Non è un caso che i finali si assomiglino: con don Puglisi, ormai ucciso, che sorride a uno dei piccoli salvati dalla strada e dalla malavita. Faenza realizza un film che i trailer fanno sembrare televisivo ma che, sin dalla sequenza iniziale, mostra di essere ben altro. Quegli scatoloni portati dai ragazzini mostrano subito il loro contenuto: vite destinate ad essere soppresse. Come quella di Don Puglisi che con il suo sorriso è stato capace di trasformare la vita di chi gli stava dando la morte. (Giancarlo Zappoli: mymovies.it)
-------------------------------------------------------------------------------------------------------------------------------------------------


Code: Seleccionar todo
General
Complete name               : Alla.Luce.Del.Sole.2005.ITALIAN.DVDRip.XviD-CPY.avi
Format                      : AVI
Format/Info                 : Audio Video Interleave
File size                   : 702 MiB
Duration                    : 1 h 30 min
Overall bit rate mode       : Variable
Overall bit rate            : 1 084 kb/s
Writing application         : Nandub v1.0rc2
Writing library             : Nandub build 1852/release

Video
ID                          : 0
Format                      : MPEG-4 Visual
Format profile              : Advanced Simple@L5
Format settings, BVOP       : 2
Format settings, QPel       : No
Format settings, GMC        : No warppoints
Format settings, Matrix     : Default (H.263)
Codec ID                    : XVID
Codec ID/Hint               : XviD
Duration                    : 1 h 30 min
Bit rate                    : 943 kb/s
Width                       : 640 pixels
Height                      : 272 pixels
Display aspect ratio        : 2.35:1
Frame rate                  : 25.000 FPS
Color space                 : YUV
Chroma subsampling          : 4:2:0
Bit depth                   : 8 bits
Scan type                   : Progressive
Compression mode            : Lossy
Bits/(Pixel*Frame)          : 0.217
Stream size                 : 611 MiB (87%)
Writing library             : XviD 1.0.3 (UTC 2004-12-20)

Audio
ID                          : 1
Format                      : MPEG Audio
Format version              : Version 1
Format profile              : Layer 3
Mode                        : Dual mono
Codec ID                    : 55
Codec ID/Hint               : MP3
Duration                    : 1 h 30 min
Bit rate mode               : Variable
Bit rate                    : 128 kb/s
Minimum bit rate            : 80.0 kb/s
Channel(s)                  : 2 channels
Sampling rate               : 48.0 kHz
Compression mode            : Lossy
Stream size                 : 82.9 MiB (12%)
Alignment                   : Aligned on interleaves
Interleave, duration        : 24  ms (0.60 video frame)
Interleave, preload duratio : 445  ms
Writing library             : LAME3.96r
Encoding settings           : -m d -V 4 -q 3 -lowpass 18 --vbr-new -b 80




Imagen
Imagen
Imagen
Imagen


ed2k://|file|Alla.Luce.Del.Sole.2005.ITALIAN.DVDRip.XviD-CPY.avi|736235520|473415C12977A82D064E8468DD6C5194|h=JDQRSM56Z4RUGVE4ZI5O4HEPJ3AR4PWK|/

Subtítulos en español:
http://www.subdivx.com/X6XMzA1NzM4X-all ... e-sun.html

:hi:

Vistas: 60  •  Comentarios: 1  •  Escribir comentario [ Atras ]

  • ¿Quién está conectado?
  • Hay 11 Usuarios identificados :: 5 registrados, 0 ocultos y 6 invitados (basados en usuarios activos en los últimos 5 minutos)
    La mayor cantidad de usuarios identificados fue 75 el 18 May 2016, 22:23

    Usuarios registrados: boettcher, droid, jomime, RickBrice, Strait





  •  Cinefórum-Clásico recomienda

  •  Cinefórum-Clásico recomienda

  •  Cinefórum-Clásico recomienda
  • Imagen

    Imagen

    Imagen

    Imagen

    Imagen

    Revistas de Cine por Franxesco
    (clic en cada imagen)