•  Ci-Cl Archivo
  • Imagen

    Archivo Cine-Clásico
    Acceso público

  •  Cumpleaños

  •  Buscar
  • Búsqueda avanzada


  •  Últimos miembros

  •  Estilo del foro


  •  Estadísticas
  • Totales
    Mensajes totales 170135
    Temas totales 13358
    Anuncios totales: 72
    Fijos totales: 34
    Adjuntos totales: 0

    Temas por día: 7
    Mensajes por día: 93
    Usuarios por día: 3
    Temas por usuario: 3
    Mensajes por usuario: 32
    Mensajes por tema: 13

    Usuarios totales 5286
    Nuestro Miembro más reciente es lucifer

  •  Enlace con nosotros
  • Por favor, siéntase libre de enlazar a . Utilice el siguiente código HTML:



Imagen
Sims
Cinefórum-Clásico es un foro de cine que utiliza las redes KAD (eMule)

Bienvenidos

Ver último mensaje Vortice (Raffaello Matarazzo) TVRip VOSE


Imagen

Estoy bastante lejos de la admiración hacia las películas de Raffaello Matarazzo, lo que no quita que considere interesante que se conozcan, así que aquí os dejo otra. Fue rodada en color, pero parece que en pocos sitios se proyectó así. En España, por lo menos, echando mano de hemeroteca, he comprobado que se estrenó en 1956 y en blanco y negro. La copia es la que está colgada en la página de la RAI (de 102 minutos, frente a los 86 con que normalmente se proyecta) a la que he quitado las bandas laterales. El subtitulado y la traducción son míos.


Imagen

Imagen

Imagen

Imdb: http://www.imdb.com/name/nm0558127/




Comentario:
En la base del digno folletín mélo-noir del Douglas Sirk italiano hay un matrimonio arreglado: la hermosa Elena (Silvana Pampini) se ve obligada a casarse con Luigi (Gianni Santuccio), director del banco donde trabaja su padre, que resultará ser un marido insoportable. Elena será acusada de su asesinato, pero a descubrir al verdadero culpable le ayudará el tierno amigo médico (Massimo Girotti), una vieja llama que, naturalmente, volverá a arder. La película tiene, como siempre en las obras de Matarazzo, un cierto compromiso social: aquí se denuncia la injusta inferioridad de la mujer con respecto al verdugo. (Silvio Raffo, Lo schermo oscuro. Cinema noir e dintorni, Bietti, 2014).

Ficha:
Director: Raffaello Matarazzo
Producción: Lux Film – Par Film, 1953
Argumento y guión: Aldo de Benedetti, Alessandro Continenza y Raffaello Matarazzo
Fotografía: Rodolfo Lombardi
Montaje: Mario Serandrei
Música: Annibale Bizzelli
Decorados: Ottavio Scotti
Ayudante dirección: Silvio Amadio
Intérpretes: Silvana Pampanini (Elena Fanti), Massimo Girotti (Guido Aureli), Gianni Santuccio (Luigi Moretti), Irene Papas (Clara), Giorgio Capecchi (comisario de policía), Gualtiero De Angelis (funcionario de policía), Anita Durante (portera), Franco Fabrizi (Viaggiani), Teresa Franchini (madre superiora), Enrico Glori (director de la cárcel), Patrizia Lari (Maria, criada de Elena), Rita Livesi (enfermera), Bella Starace Sainati (monja anciana), Aldo Silvani (director del hospital), Maria Grazia Sandri (la pequeña Anna, hija de Elena), Dina Perbellini (monja enfermera), Nino Marchesini (abogado defensor), Paolo Ferrara (padre de Elena), Giuseppe Chinnici (médico), Sandro Somaré (otro medico), Flo Sandon's (cantante del local nocturno), Amina Pirani Maggi (guardiana de la cárcel), Adriana Facchetti (vigilante de la cárcel

Datos técnicos:
Spoiler:
General
Complete name : F:\Incoming\Vortice (1953, Raffaello Matarazzo) VO.avi
Format : AVI
Format/Info : Audio Video Interleave
File size : 1.50 GiB
Duration : 1h 42mn
Overall bit rate : 2 103 Kbps
Writing application : VirtualDubMod 1.5.4.1 (build 2066/release)
Writing library : VirtualDubMod build 2066/release

Video
Format : MPEG-4 Visual
Format profile : Streaming Video@L1
Format settings, BVOP : Yes
Format settings, QPel : No
Format settings, GMC : No warppoints
Format settings, Matrix : Default (H.263)
Muxing mode : Packed bitstream
Codec ID : XVID
Codec ID/Hint : XviD
Duration : 1h 42mn
Bit rate : 1 998 Kbps
Width : 696 pixels
Height : 510 pixels
Display aspect ratio : 4/3
Frame rate : 25.000 fps
Resolution : 24 bits
Colorimetry : 4:2:0
Scan type : Progressive
Bits/(Pixel*Frame) : 0.225
Stream size : 1.43 GiB (95%)
Writing library : XviD 64

Audio
Format : MPEG Audio
Format version : Version 1
Format profile : Layer 3
Codec ID : 55
Codec ID/Hint : MP3
Duration : 1h 42mn
Bit rate mode : Variable
Bit rate : 256 Kbps
Channel(s) : 2 channels
Sampling rate : 44.1 KHz
Resolution : 16 bits
Stream size : 68.1 MiB (4%)
Alignment : Aligned on interleaves
Interleave, duration : 26 ms (0.65 video frame)
Interleave, preload duration : 268 ms

Capturas:




Imagen Imagen

Imagen Imagen

Imagen Imagen

Imagen Imagen

Imagen Imagen

Imagen Imagen

Enlaces:
Película:ed2k://|file|Vortice%20(1953,%20Raffaello%20Matarazzo)%20VO.avi|1614548992|D0907691B23AE8EF0F88676D53C02BF0|h=QG2SF2KQ6B46DR2HQDLDAVDZ3PEVAISR|/
Subtítulos: ed2k://|file|Vortice%20(1953,%20Raffaello%20Matarazzo)%20subt.%20espa%C3%B1ol.srt|125096|448FBC95D9374F464DA7D4B2CEC8156F|h=K7BYHCTYSZI2RFEHC7TCGPGXB2J5KRKD|/

Un saludo.
Ignacio.

Vistas: 131  •  Comentarios: 6  •  Escribir comentario [ Atras ]

  • ¿Quién está conectado?
  • Hay 17 Usuarios identificados :: 2 registrados, 2 ocultos y 13 invitados (basados en usuarios activos en los últimos 5 minutos)
    La mayor cantidad de usuarios identificados fue 91 el 25 Feb 2017, 16:04

    Usuarios registrados: beacpp, eulsus





  •  Cinefórum-Clásico recomienda

  •  Cinefórum-Clásico recomienda

  •  Cinefórum-Clásico recomienda
  • Imagen

    Imagen

    Imagen

    Imagen

    Imagen

    Revistas de Cine por Franxesco
    (clic en cada imagen)