•  Ci-Cl Archivo
  • Imagen

    Archivo Cine-Clásico
    Acceso público

  •  Cumpleaños

  •  Buscar
  • Búsqueda avanzada


  •  Últimos miembros

  •  Estilo del foro


  •  Estadísticas
  • Totales
    Mensajes totales 175717
    Temas totales 13653
    Anuncios totales: 72
    Fijos totales: 34
    Adjuntos totales: 0

    Temas por día: 7
    Mensajes por día: 92
    Usuarios por día: 3
    Temas por usuario: 3
    Mensajes por usuario: 33
    Mensajes por tema: 13

    Usuarios totales 5316
    Nuestro Miembro más reciente es DODGETERO

  •  Enlace con nosotros
  • Por favor, siéntase libre de enlazar a . Utilice el siguiente código HTML:



Imagen
mifune

Cinefórum-Clásico es un foro de cine que utiliza las redes KAD (eMule)

Bienvenidos

Ver último mensaje Wunder der Schöpfung (Hanns Walter Kornblum, 1925) DVDRip VOSE


MARAVILLAS DEL UNIVERSO
(1925)


Imagen

IMDb


Producción
Colonna-Film GmbH / Universum Film (UFA)

Director
Hanns Walter Kornblum

Guión
Hanns Walter Kornblum
Ernst Krieger

Intérpretes
Paul Bildt,
Willy Kaiser-Heyl
Theodor Loos
Margarethe Schlegel
Oscar Marion


Extraña película que mezcla los conocimientos sobre el universo que se tenían en la época de su realización y momentos claves de la historia de la astronomía con elementos de anticipación, como un viaje a Marte y a otros planetas realizado por astronautas alemanes. (FILMAFFINITY)

Ripeo procedente de Rutracker.



“Wunder Der Schöpfung” es un excelente filme silente cultural ( otra excelente restauración con bellas secuencias tintadas a cargo de “Edition Filmmuseum” ) que ilustra y educa al espectador acerca del tiempo y el espacio, el misterio del universo, la creación de la Tierra y su futura destrucción ( un toque, éste, típicamente germánico, ciertamente… ), los planetas y las estrellas, realizado todo ello tratado científicamente pero al mismo tiempo de forma muy entretenida ( la parte más fantasiosa incluida en el filme corre a cargo de las citas bíblicas y sus inexactitudes científicas… ); como un joven melenudo dijo hace cierto tiempo, “Wunder Der Schöpfung” es toda una maravillosa rareza espacial.
Ferdinand Von Galitzien




Imagen



Datos técnicos:
Code: Seleccionar todo

General
Complete name               : 1925 Wunder der Schöpfung.avi
Format                      : AVI
Format/Info                 : Audio Video Interleave
File size                   : 881 MiB
Duration                    : 1 h 31 min
Overall bit rate mode       : Variable
Overall bit rate            : 1 345 kb/s
Writing application         : VirtualDubMod 1.5.4.1 (build 2178/release)
Writing library             : VirtualDubMod build 2178/release

Video
ID                          : 0
Format                      : MPEG-4 Visual
Format profile              : Advanced Simple@L5
Format settings, BVOP       : 1
Format settings, QPel       : No
Format settings, GMC        : No warppoints
Format settings, Matrix     : Default (H.263)
Muxing mode                 : Packed bitstream
Codec ID                    : XVID
Codec ID/Hint               : XviD
Duration                    : 1 h 31 min
Bit rate                    : 1 151 kb/s
Width                       : 640 pixels
Height                      : 480 pixels
Display aspect ratio        : 4:3
Frame rate                  : 25.000 FPS
Color space                 : YUV
Chroma subsampling          : 4:2:0
Bit depth                   : 8 bits
Scan type                   : Progressive
Compression mode            : Lossy
Bits/(Pixel*Frame)          : 0.150
Stream size                 : 754 MiB (86%)
Writing library             : XviD 1.2.0.dev47 (UTC 2006-11-01)

Audio #1
ID                          : 1
Format                      : MPEG Audio
Format version              : Version 1
Format profile              : Layer 3
Mode                        : Joint stereo
Mode extension              : MS Stereo
Codec ID                    : 55
Codec ID/Hint               : MP3
Duration                    : 1 h 31 min
Bit rate mode               : Variable
Bit rate                    : 89.3 kb/s
Nominal bit rate            : 96.0 kb/s
Channel(s)                  : 2 channels
Sampling rate               : 32.0 kHz
Compression mode            : Lossy
Stream size                 : 58.5 MiB (7%)
Alignment                   : Aligned on interleaves
Interleave, duration        : 36  ms (0.90 video frame)
Interleave, preload duratio : 493  ms
Writing library             : LAME3.97
Encoding settings           : -m j -V 4 -q 2 -lowpass 15.1 --abr 96
Language                    : Deutsch

Audio #2
ID                          : 2
Format                      : MPEG Audio
Format version              : Version 1
Format profile              : Layer 3
Mode                        : Joint stereo
Mode extension              : MS Stereo
Codec ID                    : 55
Codec ID/Hint               : MP3
Duration                    : 1 h 31 min
Bit rate mode               : Variable
Bit rate                    : 88.9 kb/s
Nominal bit rate            : 96.0 kb/s
Channel(s)                  : 2 channels
Sampling rate               : 32.0 kHz
Compression mode            : Lossy
Stream size                 : 58.2 MiB (7%)
Alignment                   : Aligned on interleaves
Interleave, duration        : 36  ms (0.90 video frame)
Interleave, preload duratio : 492  ms
Writing library             : LAME3.97
Encoding settings           : -m j -V 4 -q 2 -lowpass 15.1 --abr 96
Language                    : Deutsch



Imagen
Imagen
Imagen
Imagen
Imagen


ed2k://|file|1925%20Wunder%20der%20Sch%C3%B6pfung.avi|923639808|3CDF877EBCED335EDF4DBC60ED601454|h=JEQJNSILJ6SQ5XPQOSDUOFBR46QF2NYT|/

Subtítulos en español obra de walterh78:
https://www.subdivx.com/X6XMzA0NjE5X

Vistas: 108  •  Comentarios: 5  •  Escribir comentario [ Atras ]

  • ¿Quién está conectado?




  •  Cinefórum-Clásico recomienda

  •  Cinefórum-Clásico recomienda

  •  Cinefórum-Clásico recomienda
  • Imagen

    Imagen

    Imagen

    Imagen

    Imagen

    Revistas de Cine por Franxesco
    (clic en cada imagen)