•  Ci-Cl Archivo
  • Imagen

    Archivo Cine-Clásico
    Acceso público

  •  Cumpleaños

  •  Buscar
  • Búsqueda avanzada


  •  Últimos miembros

  •  Estilo del foro


  •  Estadísticas
  • Totales
    Mensajes totales 172323
    Temas totales 13459
    Anuncios totales: 72
    Fijos totales: 34
    Adjuntos totales: 0

    Temas por día: 7
    Mensajes por día: 92
    Usuarios por día: 3
    Temas por usuario: 3
    Mensajes por usuario: 33
    Mensajes por tema: 13

    Usuarios totales 5294
    Nuestro Miembro más reciente es vankatapd

  •  Enlace con nosotros
  • Por favor, siéntase libre de enlazar a . Utilice el siguiente código HTML:



Imagen
Bunker
Cinefórum-Clásico es un foro de cine que utiliza las redes KAD (eMule)

Bienvenidos

Ver último mensaje Totò e Marcellino (Antonio Musu, 1958) SATRip VE


Totò y Pablito (AKA Totò e Marcellino)
1958

Imagen
Imagen


Imagen


DIRECTOR: Antonio Musu (Doblaje Español: Julio Alymán)
PRODUCTORA: Coproducción Italia-Francia; Euro International Film (EIA)
GUIÓN: Antonio Musu (Historia: Pasquale Festa Campanile, Massimo Franciosa)
MÚSICA: Carlo Rustichelli
FOTOGRAFÍA: Renato Del Frate



ARGUMENTO Marcellino se acaba de quedar huérfano. Durante el funeral de su madre, un ladronzuelo famélico que huye de la policía se acerca al niño para dar esquinazo a sus captores. Para que el huérfano no sospeche, le hace creer que es su tío. A partir de ese momento, el caco deberá hacerse cargo del pequeño. (FILMAFFINITY) IMDB: www.imdb.com/title/tt0052307/

Doblaje Cines 1960: http://www.eldoblaje.com/datos/FichaPel ... sp?id=7987

Reparto: Totò, Pablito Calvo, Memmo Carotenuto, Fanfulla, Jone Salinas, Wandisa Guida, Nanda Primavera



Datos Técnicos:

Es un ripeo del montaje (sin ser una recreación, de ahí el nombre de Julio Alymán) estrenado en su dia en los cines con los créditos en español, algo muy difícil de encontrar en películas sin ser copróduciones con España. En unos días, el montaje original

Code: Seleccionar todo
General:
General
Complete name                    : 1958 Totò y Pablito (AKA Totò e Marcellino)(Antonio Musu, Julio Alymán, 1958) SATRip VE (Doblaje Cines 1960) by droid [cine-clasico.com].avi
Format                           : AVI
Format/Info                      : Audio Video Interleave
File size                        : 787 MiB
Duration                         : 1h 20mn
Overall bit rate                 : 1 360 Kbps
Writing application              : VirtualDubMod 1.5.4.1 (build 2066/release)
Writing library                  : VirtualDubMod build 2066/release

Video
ID                               : 0
Format                           : MPEG-4 Visual
Format profile                   : Advanced Simple@L5
Format settings, BVOP            : 2
Format settings, QPel            : No
Format settings, GMC             : No warppoints
Format settings, Matrix          : Default (H.263)
Codec ID                         : XVID
Codec ID/Hint                    : XviD
Duration                         : 1h 20mn
Bit rate                         : 1 094 Kbps
Width                            : 672 pixels
Height                           : 496 pixels
Display aspect ratio             : 4:3
Frame rate                       : 25.000 fps
Color space                      : YUV
Chroma subsampling               : 4:2:0
Bit depth                        : 8 bits
Scan type                        : Progressive
Compression mode                 : Lossy
Bits/(Pixel*Frame)               : 0.131
Stream size                      : 634 MiB (80%)
Writing library                  : XviD 0039 build=2005.09.16 (UTC 2005-09-16)

Audio
ID                               : 1
Format                           : MPEG Audio
Format version                   : Version 1
Format profile                   : Layer 2
Codec ID                         : 50
Duration                         : 1h 20mn
Bit rate mode                    : Constant
Bit rate                         : 256 Kbps
Channel(s)                       : 2 channels
Sampling rate                    : 48.0 KHz
Compression mode                 : Lossy
Stream size                      : 148 MiB (19%)
Alignment                        : Aligned on interleaves
Interleave, duration             : 40 ms (1.00 video frame)
Interleave, preload duration     : 504 ms





Capturas:

Imagen
ImagenImagen
ImagenImagen
ImagenImagen
ImagenImagen


Enlace: (Ripeo de droid)

ed2k://|file|1958%20Tot%C3%B2%20y%20Pablito%20(AKA%20Tot%C3%B2%20e%20Marcellino)(Antonio%20Musu,%20Julio%20Alym%C3%A1n,%201958)%20SATRip%20VE%20(Doblaje%20Cines%201960)%20by%20droid%20[cine-clasico.com].avi|825690112|082BAA4E239D8F23C3132A6F25514FD8|h=CVHUACQD2Z6WWR3PYFOTCSLL6MRB5PFU|/


DD: https://mega.nz/#!RxwFkSbR!B8AfMiYaBuqJ ... cDpUOCr8nY

Vistas: 120  •  Comentarios: 5  •  Escribir comentario [ Atras ]

  • ¿Quién está conectado?
  • Hay 22 Usuarios identificados :: 5 registrados, 0 ocultos y 17 invitados (basados en usuarios activos en los últimos 5 minutos)
    La mayor cantidad de usuarios identificados fue 91 el 25 Feb 2017, 16:04

    Usuarios registrados: Bing [Bot], eulsus, lealjose, paz, yojimbo





  •  Cinefórum-Clásico recomienda

  •  Cinefórum-Clásico recomienda

  •  Cinefórum-Clásico recomienda
  • Imagen

    Imagen

    Imagen

    Imagen

    Imagen

    Revistas de Cine por Franxesco
    (clic en cada imagen)