•  Ci-Cl Archivo
  • Imagen

    Archivo Cine-Clásico
    Acceso público

  •  Cumpleaños

  •  Buscar
  • Búsqueda avanzada


  •  Últimos miembros

  •  Estilo del foro


  •  Estadísticas
  • Totales
    Mensajes totales 168414
    Temas totales 13250
    Anuncios totales: 72
    Fijos totales: 34
    Adjuntos totales: 0

    Temas por día: 7
    Mensajes por día: 93
    Usuarios por día: 3
    Temas por usuario: 3
    Mensajes por usuario: 32
    Mensajes por tema: 13

    Usuarios totales 5276
    Nuestro Miembro más reciente es grusingrusin

  •  Enlace con nosotros
  • Por favor, siéntase libre de enlazar a . Utilice el siguiente código HTML:



Imagen
Bunker
Cinefórum-Clásico es un foro de cine que utiliza las redes KAD (eMule)

Bienvenidos

Ver último mensaje El verdugo (Luis García Berlanga, 1963) BDRip 720p VE


Hilo anterior

El verdugo (AKA La ballata del boia)
1963

Imagen

Imagen


DIRECTOR: Luis García Berlanga
PRODUCTORA: Coproducción España-Italia; Naga Films / Zabra Films
GUIÓN: Rafael Azcona, Luis García Berlanga, Ennio Flaiano
MÚSICA: Miguel Asins Arbó
FOTOGRAFÍA: Tonino Delli Colli



ARGUMENTO José Luis, el empleado de una funeraria, proyecta emigrar a Alemania para convertirse en un buen mecánico. Su novia es hija de Amadeo, un verdugo profesional. Cuando éste los sorprende en la intimidad, los obliga a casarse. Ante la acuciante falta de medios económicos de los recién casados, Amadeo, que está a punto de jubilarse, trata de persuadir a José Luis para que solicite la plaza que él va a dejar vacante, lo que le daría derecho a una vivienda. José Luis acaba aceptando la propuesta de su suegro con el convencimiento de que jamás se presentará la ocasión de ejercer tan ignominioso oficio. (FILMAFFINITY) IMDB: http://www.imdb.com/title/tt0061636/

Ficha del doblaje: http://www.eldoblaje.com/datos/FichaPel ... sp?id=9295

Reparto: José Isbert, Nino Manfredi, Emma Penella, José Luis López Vázquez, Ángel Álvarez, María Luisa Ponte, María Isbert, Julia Caba Alba, Guido Alberti, Erasmo Pascual, Xan das Bolas, José Orjas, José María Prada, Félix Fernández, Antonio Ferrandis, Lola Gaos, Alfredo Landa, José Sazatornil, Agustín González, Chus Lampreave, José Luis Coll, José Cordero, Pedro Beltrán, Dolores García, Emilio Laguna, Enrique Tusquets, Enrique Pelayo



Datos Técnicos:

Code: Seleccionar todo
General:
Complete name                    : 1963 El verdugo (AKA La ballata del boia)(Luis García Berlanga, 1963) BDRip Ed. Criterion 720p VE (Doblaje Cines 1964) by majprieto (GrupoHDS).mkv
Format                           : Matroska
Format version                   : Version 4 / Version 2
File size                        : 6.45 GiB
Duration                         : 1h 32mn
Overall bit rate                 : 10.0 Mbps
Movie name                       : El Vedugo (1963) Ed. Criterion [BDRip 720p x264 Cast. AC3][GrupoHDS] -majprieto
Encoded date                     : UTC 2016-11-11 17:19:12
Writing application              : mkvmerge v7.8.0 ('River Man') 64bit built on Mar 27 2015 16:31:37
Writing library                  : libebml v1.3.1 + libmatroska v1.4.2

Video
ID                               : 1
Format                           : AVC
Format/Info                      : Advanced Video Codec
Format profile                   : High@L4.1
Format settings, CABAC           : Yes
Format settings, ReFrames        : 9 frames
Codec ID                         : V_MPEG4/ISO/AVC
Duration                         : 1h 32mn
Bit rate                         : 9 395 Kbps
Width                            : 1 280 pixels
Height                           : 692 pixels
Display aspect ratio             : 1.850
Frame rate                       : 23.976 fps
Color space                      : YUV
Chroma subsampling               : 4:2:0
Bit depth                        : 8 bits
Scan type                        : Progressive
Bits/(Pixel*Frame)               : 0.442
Stream size                      : 5.91 GiB (92%)
Title                            : El Vedugo (1963) Ed. Criterion [BDRip 720p x264 Cast. AC3][GrupoHDS] -majprieto
Writing library                  : x264 core 148 r2721 72d53ab
Encoding settings                : cabac=1 / ref=9 / deblock=1:-3:-3 / analyse=0x3:0x133 / me=umh / subme=11 / psy=1 / psy_rd=1.10:0.00 / mixed_ref=1 / me_range=32 / chroma_me=1 / trellis=2 / 8x8dct=1 / cqm=0 / deadzone=21,11 / fast_pskip=0 / chroma_qp_offset=-2 / threads=18 / lookahead_threads=4 / sliced_threads=0 / nr=0 / decimate=0 / interlaced=0 / bluray_compat=0 / constrained_intra=0 / bframes=10 / b_pyramid=2 / b_adapt=2 / b_bias=0 / direct=3 / weightb=0 / open_gop=0 / weightp=2 / keyint=240 / keyint_min=23 / scenecut=40 / intra_refresh=0 / rc_lookahead=60 / rc=2pass / mbtree=0 / bitrate=9395 / ratetol=1.0 / qcomp=0.70 / qpmin=0 / qpmax=51 / qpstep=4 / cplxblur=20.0 / qblur=0.5 / vbv_maxrate=40000 / vbv_bufsize=40000 / nal_hrd=none / filler=0 / ip_ratio=1.30 / pb_ratio=1.20 / aq=3:0.60
Language                         : Spanish
Default                          : Yes
Forced                           : No

Audio
ID                               : 2
Format                           : AC-3
Format/Info                      : Audio Coding 3
Mode extension                   : CM (complete main)
Codec ID                         : A_AC3
Duration                         : 1h 32mn
Bit rate mode                    : Constant
Bit rate                         : 640 Kbps
Channel(s)                       : 6 channels
Channel positions                : Front: L C R, Side: L R, LFE
Sampling rate                    : 48.0 KHz
Bit depth                        : 16 bits
Compression mode                 : Lossy
Stream size                      : 421 MiB (6%)
Title                            : Castellano AC3 5.1 @ 640 Kbps -> DTS-HD MA de BD ESP
Language                         : Spanish
Default                          : Yes
Forced                           : Yes

Menu
00:00:00.000                     : en:00:00:00.000
00:02:52.381                     : en:00:02:52.381
00:09:12.552                     : en:00:09:12.552
00:14:01.424                     : en:00:14:01.424
00:18:28.274                     : en:00:18:28.274
00:22:15.125                     : en:00:22:15.125
00:25:40.831                     : en:00:25:40.831
00:29:56.837                     : en:00:29:56.837
00:33:19.539                     : en:00:33:19.539
00:38:15.835                     : en:00:38:15.835
00:42:33.426                     : en:00:42:33.426
00:47:29.847                     : en:00:47:29.847
00:52:30.022                     : en:00:52:30.022
00:56:07.531                     : en:00:56:07.531
01:03:05.782                     : en:01:03:05.782
01:08:57.592                     : en:01:08:57.592
01:14:55.032                     : en:01:14:55.032
01:24:26.061                     : en:01:24:26.061
01:28:16.249                     : en:01:28:16.249





Capturas:

Imagen
Imagen
Imagen
Imagen
Imagen
Imagen
Imagen

Enlace: (Ripeo de majprieto en GrupoHDS, encontrado en emule)

ed2k://|file|1963%20El%20verdugo%20(AKA%20La%20ballata%20del%20boia)(Luis%20Garc%C3%ADa%20Berlanga,%201963)%20BDRip%20Ed.%20Criterion%20720p%20VE%20(Doblaje%20Cines%201964)%20by%20majprieto%20(GrupoHDS).mkv|6928947729|725FBFE887C2136539E9988576C51AD3|h=77HGX6DAI22LG5H4TR2PE3TOWIT6RUAR|/

Vistas: 128  •  Comentarios: 6  •  Escribir comentario [ Atras ]

  • ¿Quién está conectado?
  • Hay 7 Usuarios identificados :: 2 registrados, 0 ocultos y 5 invitados (basados en usuarios activos en los últimos 5 minutos)
    La mayor cantidad de usuarios identificados fue 91 el 25 Feb 2017, 16:04

    Usuarios registrados: beacpp, Bing [Bot]





  •  Cinefórum-Clásico recomienda

  •  Cinefórum-Clásico recomienda

  •  Cinefórum-Clásico recomienda
  • Imagen

    Imagen

    Imagen

    Imagen

    Imagen

    Revistas de Cine por Franxesco
    (clic en cada imagen)