•  Ci-Cl Archivo
  • Imagen

    Archivo Cine-Clásico
    Acceso público

  •  Cumpleaños

  •  Buscar
  • Búsqueda avanzada


  •  Últimos miembros

  •  Estilo del foro


  •  Estadísticas
  • Totales
    Mensajes totales 150820
    Temas totales 12194
    Anuncios totales: 72
    Fijos totales: 24
    Adjuntos totales: 0

    Temas por día: 8
    Mensajes por día: 95
    Usuarios por día: 3
    Temas por usuario: 2
    Mensajes por usuario: 29
    Mensajes por tema: 12

    Usuarios totales 5193
    Nuestro Miembro más reciente es elaguainmovil

  •  Enlace con nosotros
  • Por favor, siéntase libre de enlazar a . Utilice el siguiente código HTML:



Imagen
mifune
¡Feliz Año Nuevo!
Cinefórum-Clásico es un foro de cine P2P, que utiliza las redes KAD (eMule)

Bienvenidos

Ver último mensaje Decoy (Jack Bernhard, 1946) DVDRip VOSE


Decoy (1946)
Imagen

Mortalmente herida, una gánster recuerda como ella y su banda revivieron a un asesino ejecutado
en la cámara de gas, para intentar conocer donde éste había enterrado una fortuna en efectivo.

IMDB
Directed by Jack Bernhard
Writing Credits: Nedrick Young ... (screenplay) (as Ned Young)
Stanley Rubin ... (story)
Reparto:
Jean Gillie ... Margot Shelby (as Miss Jean Gillie)
Edward Norris ... Jim Vincent
Robert Armstrong ... Frankie Olins
Herbert Rudley ... Dr. Lloyd L. Craig
Sheldon Leonard ... Police Sgt. Joe Portugal
Marjorie Woodworth ... Craig's Nurse
Philip Van Zandt ... Tommy (as Phil Van Zandt)
Carole Donne ... Waitress
John Shay ... Al
Bert Roach ... Mack - Bartender
Rosemary Bertrand ... Ruth

Runtime: 76 min
Sound Mix: Mono (Western Electric Mirrophonic Recording)
Color: Black and White
Aspect Ratio: 1.37 : 1

Capturas:
ImagenImagenImagenImagenImagen

ImagenImagenImagenImagenImagen


Datos:
Code: Seleccionar todo

General
Unique ID                                : 218334849330253143770762715160188709859 (0xA441C32E24AFCCB5B6BC652FEF026BE3)
Complete name                            : Decoy (1946) DVDRip.VOSE.mkv
Format                                   : Matroska
Format version                           : Version 4 / Version 2
File size                                : 1.40 GiB
Duration                                 : 1 h 15 min
Overall bit rate                         : 2 642 kb/s
Encoded date                             : UTC 2017-01-16 05:06:54
Writing application                      : mkvmerge v7.9.0 ('Birds') 32bit
Writing library                          : libebml v1.3.1 + libmatroska v1.4.2

Video
ID                                       : 1
Format                                   : AVC
Format/Info                              : Advanced Video Codec
Format profile                           : High@L4.1
Format settings, CABAC                   : Yes
Format settings, ReFrames                : 5 frames
Codec ID                                 : V_MPEG4/ISO/AVC
Duration                                 : 1 h 15 min
Bit rate                                 : 2 445 kb/s
Width                                    : 656 pixels
Height                                   : 480 pixels
Display aspect ratio                     : 4:3
Frame rate mode                          : Constant
Frame rate                               : 23.976 (24000/1001) FPS
Color space                              : YUV
Chroma subsampling                       : 4:2:0
Bit depth                                : 8 bits
Scan type                                : Progressive
Bits/(Pixel*Frame)                       : 0.324
Stream size                              : 1.30 GiB (93%)
Writing library                          : x264 core 148 r2744 b97ae06
Encoding settings                        : cabac=1 / ref=5 / deblock=1:-1:-1 / analyse=0x3:0x113 / me=hex / subme=8 / psy=1 / psy_rd=1.00:0.15 / mixed_ref=1 / me_range=16 / chroma_me=1 / trellis=2 / 8x8dct=1 / cqm=0 / deadzone=21,11 / fast_pskip=1 / chroma_qp_offset=-3 / threads=6 / lookahead_threads=1 / sliced_threads=0 / nr=0 / decimate=1 / interlaced=0 / bluray_compat=0 / constrained_intra=0 / bframes=3 / b_pyramid=2 / b_adapt=1 / b_bias=0 / direct=3 / weightb=1 / open_gop=0 / weightp=2 / keyint=240 / keyint_min=23 / scenecut=40 / intra_refresh=0 / rc_lookahead=50 / rc=2pass / mbtree=1 / bitrate=2445 / ratetol=1.0 / qcomp=0.60 / qpmin=0 / qpmax=69 / qpstep=4 / cplxblur=20.0 / qblur=0.5 / vbv_maxrate=50000 / vbv_bufsize=62500 / nal_hrd=none / filler=0 / ip_ratio=1.40 / aq=1:1.00
Language                                 : English
Default                                  : Yes
Forced                                   : No

Audio
ID                                       : 2
Format                                   : AC-3
Format/Info                              : Audio Coding 3
Mode extension                           : CM (complete main)
Format settings, Endianness              : Big
Codec ID                                 : A_AC3
Duration                                 : 1 h 15 min
Bit rate mode                            : Constant
Bit rate                                 : 192 kb/s
Channel(s)                               : 1 channel
Channel positions                        : Front: C
Sampling rate                            : 48.0 kHz
Frame rate                               : 31.250 FPS (1536 spf)
Bit depth                                : 16 bits
Compression mode                         : Lossy
Delay relative to video                  : 7 ms
Stream size                              : 104 MiB (7%)
Default                                  : Yes
Forced                                   : No

Text #1
ID                                       : 3
Format                                   : VobSub
Muxing mode                              : zlib
Codec ID                                 : S_VOBSUB
Codec ID/Info                            : Picture based subtitle format used on DVDs
Duration                                 : 1 h 12 min
Bit rate                                 : 1 438 b/s
Count of elements                        : 706
Stream size                              : 767 KiB (0%)
Language                                 : English
Default                                  : No
Forced                                   : No

Text #2
ID                                       : 4
Format                                   : VobSub
Muxing mode                              : zlib
Codec ID                                 : S_VOBSUB
Codec ID/Info                            : Picture based subtitle format used on DVDs
Duration                                 : 1 h 12 min
Bit rate                                 : 1 469 b/s
Count of elements                        : 714
Stream size                              : 780 KiB (0%)
Language                                 : Spanish
Default                                  : No
Forced                                   : No


Subtíulos en inglés y español incluidos en el contenedor MKV, los ingleses estaban con el DVD
y los españoles traducidos por mi hace tiempo y revisados por el prof. Keller.

Elink:
ed2k://|file|Decoy%20(1946)%20DVDRip.VOSE.mkv|1503390330|F4007FC6EEFE1E66EB8A3890D64B053C|h=3AUPZE2JI7F4YUZGNZ3PVBZTPWGXBGDI|/

Vistas: 84  •  Comentarios: 2  •  Escribir comentario [ Atras ]

  • ¿Quién está conectado?
  • Hay 10 Usuarios identificados :: 4 registrados, 0 ocultos y 6 invitados (basados en usuarios activos en los últimos 5 minutos)
    La mayor cantidad de usuarios identificados fue 75 el 18 May 2016, 22:23

    Usuarios registrados: boettcher, jomime, RickBrice, Strait





  •  Cinefórum-Clásico recomienda

  •  Cinefórum-Clásico recomienda

  •  Cinefórum-Clásico recomienda
  • Imagen

    Imagen

    Imagen

    Imagen

    Imagen

    Revistas de Cine por Franxesco
    (clic en cada imagen)