•  Ci-Cl Archivo
  • Imagen

    Archivo Cine-Clásico
    Acceso público

  •  Cumpleaños

  •  Buscar
  • Búsqueda avanzada


  •  Últimos miembros

  •  Estilo del foro


  •  Estadísticas
  • Totales
    Mensajes totales 168092
    Temas totales 13236
    Anuncios totales: 72
    Fijos totales: 34
    Adjuntos totales: 0

    Temas por día: 7
    Mensajes por día: 93
    Usuarios por día: 3
    Temas por usuario: 3
    Mensajes por usuario: 32
    Mensajes por tema: 13

    Usuarios totales 5273
    Nuestro Miembro más reciente es orbtwin

  •  Enlace con nosotros
  • Por favor, siéntase libre de enlazar a . Utilice el siguiente código HTML:



Imagen
Bunker
Cinefórum-Clásico es un foro de cine que utiliza las redes KAD (eMule)

Bienvenidos

Ver último mensaje Mi nombre es Pecos (Maurizio Lucidi, 1967) DVDRip VOSE


MI NOMBRE ES PECOS

Imagen

Título original 2 once di piombo
Año 1967
Duración 83 min.
País Italia
Director Maurizio Lucidi
Guion Adriano Bolzoni
Música Coriolano Gori
Fotografía Franco Villa
Reparto Robert Woods, Pier Paolo Capponi, Lucia Modugno, Peter Carsten, Luigi Casellato, Cristina Iosani, Giuseppe Raffaelli, Maurizio Boni, Umberto Raho, George Eastman
Los habitantes de Houston viven aterrorizados por la banda de Joe Clane que ha tomado el pueblo en su intento por recuperar el producto del robo del banco de Laredo, 80.000 dólares, escondido en Houston por un traidor con ayuda de un vecino cuya identidad desconocen. Hasta allí llegará Pecos Martínez, un enigmático pistolero mejicano tan rápido con el revólver como parco en palabras, que tiene una dolorosa cuenta pendiente con Joe. El enfrentamiento será inevitable.


[imdb]http://www.imdb.com/title/tt0060351/[/imdb]

Imagen
Imagen
Imagen
Imagen

Spoiler:
General
Unique ID : 251104336337948719127231495814477828223 (0xBCE8EFA11879E857A592066D66ECD07F)
Complete name : C:\Users\DavidS\Downloads\eMule\Incoming\Mi nombre es Pecos (My-Name-Is-Pecos- Italiano Ingles (1967) sub aleman.mkv
Format : Matroska
Format version : Version 4 / Version 2
File size : 1.24 GiB
Duration : 1h 21mn
Overall bit rate : 2 169 Kbps
Encoded date : UTC 2016-12-01T06:00:04Z
Writing application : mkvmerge v5.9.0 ('On The Loose') built on Dec 9 2012 15:37:01
Writing library : Lavf55.12.0

Video
ID : 1
Format : AVC
Format/Info : Advanced Video Codec
Format profile : Main@L4.0
Format settings, CABAC : Yes
Format settings, ReFrames : 16 frames
Muxing mode : Header stripping
Codec ID : V_MPEG4/ISO/AVC
Duration : 1h 21mn
Bit rate : 1 742 Kbps
Width : 720 pixels
Height : 438 pixels
Display aspect ratio : 2.35:1
Frame rate mode : Constant
Frame rate : 25.000 fps
Color space : YUV
Chroma subsampling : 4:2:0
Bit depth : 8 bits
Scan type : Progressive
Bits/(Pixel*Frame) : 0.221
Stream size : 1 016 MiB (80%)
Writing library : x264 core 142 r2479 dd79a61
Encoding settings : cabac=1 / ref=16 / deblock=1:-1:-1 / analyse=0x1:0x131 / me=tesa / subme=11 / psy=1 / psy_rd=1.00:0.15 / mixed_ref=1 / me_range=24 / chroma_me=1 / trellis=2 / 8x8dct=0 / cqm=0 / deadzone=21,11 / fast_pskip=0 / chroma_qp_offset=-3 / threads=24 / lookahead_threads=3 / sliced_threads=0 / nr=0 / decimate=1 / interlaced=0 / bluray_compat=0 / constrained_intra=0 / bframes=16 / b_pyramid=2 / b_adapt=2 / b_bias=0 / direct=3 / weightb=1 / open_gop=0 / weightp=2 / keyint=250 / keyint_min=25 / scenecut=40 / intra_refresh=0 / rc_lookahead=60 / rc=crf / mbtree=1 / crf=18.0 / qcomp=0.60 / qpmin=0 / qpmax=69 / qpstep=4 / vbv_maxrate=20000 / vbv_bufsize=25000 / crf_max=0.0 / nal_hrd=none / filler=0 / ip_ratio=1.40 / aq=1:1.00
Default : Yes
Forced : No
Color primaries : BT.601 PAL
Transfer characteristics : BT.709
Matrix coefficients : BT.601
Audio #1
ID : 2
Format : AC-3
Format/Info : Audio Coding 3
Mode extension : CM (complete main)
Format settings, Endianness : Big
Muxing mode : Header stripping
Codec ID : A_AC3
Duration : 1h 21mn
Bit rate mode : Constant
Bit rate : 192 Kbps
Channel(s) : 2 channels
Channel positions : Front: L R
Sampling rate : 48.0 KHz
Bit depth : 16 bits
Compression mode : Lossy
Delay relative to video : -5ms
Stream size : 112 MiB (9%)
Title : Stereo
Language : English
Default : Yes
Forced : No
Audio #2
ID : 3
Format : AC-3


Buen spaghetti westerns. El audio esta en italiano e ingles, y los subtitulos han sido traducidos por TOERLESS
ed2k://|file|Mi%20nombre%20es%20Pecos%20(My-Name-Is-Pecos-%20Italiano%20Ingles%20(1967)%20sub%20aleman.mkv|1326414986|18DA9EA2770E0C5E89FA4A58007FA5C4|h=4MHAE6ZN6N4FTEU7YBQHU4SKMNOTKDL6|/
SUBTITULOS TRADUCIDOS POR TOERLESS http://www.subdivx.com/X6XNTEwNDg4X-mi- ... -1966.html

Vistas: 70  •  Comentarios: 3  •  Escribir comentario [ Atras ]

  • ¿Quién está conectado?
  • Hay 14 Usuarios identificados :: 4 registrados, 1 oculto y 9 invitados (basados en usuarios activos en los últimos 5 minutos)
    La mayor cantidad de usuarios identificados fue 91 el 25 Feb 2017, 16:04

    Usuarios registrados: Bing [Bot], elrodri, josilv, sete





  •  Cinefórum-Clásico recomienda

  •  Cinefórum-Clásico recomienda

  •  Cinefórum-Clásico recomienda
  • Imagen

    Imagen

    Imagen

    Imagen

    Imagen

    Revistas de Cine por Franxesco
    (clic en cada imagen)