•  Ci-Cl Archivo
  • Imagen

    Archivo Cine-Clásico
    Acceso público

  •  Cumpleaños

  •  Buscar
  • Búsqueda avanzada


  •  Últimos miembros

  •  Estilo del foro


  •  Estadísticas
  • Totales
    Mensajes totales 174555
    Temas totales 13567
    Anuncios totales: 72
    Fijos totales: 34
    Adjuntos totales: 0

    Temas por día: 7
    Mensajes por día: 92
    Usuarios por día: 3
    Temas por usuario: 3
    Mensajes por usuario: 33
    Mensajes por tema: 13

    Usuarios totales 5308
    Nuestro Miembro más reciente es ameg2709

  •  Enlace con nosotros
  • Por favor, siéntase libre de enlazar a . Utilice el siguiente código HTML:



Imagen
chuschaos

Cinefórum-Clásico es un foro de cine que utiliza las redes KAD (eMule)

Bienvenidos

Ver último mensaje Sparrows (William Beaudine, 1926) BDRip VOSE


GORRIONES
(1926)


Imagen

IMDb


Producción
Pickford Corporation
(United Artist)

Director
William Beaudine

Guión
Winifred Dunn
George Marion Jr.
C. Gardner Sullivan

Intérpretes
Mary Pickford
Roy Stewart
Mary Louise Miller
Gustav von Seyffertitz
Charlotte Mineau
Spec O'Donnell
Lloyd Whitlock
Billy Butts


Oculta en los pantanos del sur, la familia Grimes tiene una granja donde los niños no deseados o perdidos son cruelmente desnutridos y agotados. Mamá Mollie (Pickford), la mayor de los niños, protege a los demás lo mejor que puede y mantiene su valor diciéndoles que Dios cuida de ellos como lo hace del más pequeño gorrión. (FILMAFFINITY)


Ripeo procedente de Rutracker.


Imagen


Un gran logro de William Beaudine, prolífico director y a menudo talentoso, y un papel de oro para Mary Pickford. A los treinta y tres años puede interpretar a adolescentes valerosas, plenas de vitalidad y de alegría, haciendo frente y ayudando a los demás a hacer frente a las peores calamidades. El marco y la intriga son muy originales. Beaudine, para ponerlos de relieve, usa un estilo muy puro y muy eficaz que otorga al relato la intensidad delirante de una pesadilla sin recurrir para ello a artificio alguno, a ninguna distorsión de la imagen o de la realidad. Sparrows pertenece a la tradición ancestral y siempre renovada del cuento de terror para (y con) niños donde podrían encuadrarse películas tan diversas como Moonfleet (Lang, 1955), La noche del cazador (Laughton, 1955), A High Wind in Jamaica(Mackendrick, 1965), Our Mother's House (Jack Clayton, 1967), La dame en couleurs (Claude Jutra, 1984).
Jacques Lourcelles




Imagen


Datos técnicos:
Code: Seleccionar todo

General
Complete name               : Sparrows.1926.720p.BluRay.DTS.mkv
Format                      : Matroska
Format version              : Version 4 / Version 2
File size                   : 3.95 GiB
Duration                    : 1 h 33 min
Overall bit rate            : 6 071 kb/s
Movie name                  : Sparrows (1926) - Release for HDBITS by SbR
Encoded date                : UTC 2017-11-20 19:24:52
Writing application         : mkvmerge v13.0.0 ('The Juggler') 32bit
Writing library             : libebml v1.3.4 + libmatroska v1.4.5
Cover                       : Yes
Attachments                 : cover.jpg / xlog.txt

Video
ID                          : 1
Format                      : AVC
Format/Info                 : Advanced Video Codec
Format profile              : High@L4.1
Format settings, CABAC      : Yes
Format settings, RefFrames  : 12 frames
Codec ID                    : V_MPEG4/ISO/AVC
Duration                    : 1 h 33 min
Bit rate                    : 4 929 kb/s
Width                       : 960 pixels
Height                      : 720 pixels
Display aspect ratio        : 4:3
Frame rate mode             : Constant
Frame rate                  : 20.979 (21000/1001) FPS
Color space                 : YUV
Chroma subsampling          : 4:2:0
Bit depth                   : 8 bits
Scan type                   : Progressive
Bits/(Pixel*Frame)          : 0.340
Stream size                 : 3.21 GiB (81%)
Title                       : Release for HDBITS by SbR/Skazhutin
Writing library             : x264 core 133 r2334kMod a3ac64b
Encoding settings           : cabac=1 / ref=12 / deblock=1:-2:-2 / analyse=0x3:0x113 / me=umh / subme=11 / psy=1 / fade_compensate=0.00 / psy_rd=1.00:0.00 / mixed_ref=1 / me_range=48 / chroma_me=1 / trellis=2 / 8x8dct=1 / cqm=0 / deadzone=21,11 / fast_pskip=1 / chroma_qp_offset=-2 / threads=12 / lookahead_threads=3 / sliced_threads=0 / nr=0 / decimate=1 / interlaced=0 / bluray_compat=0 / constrained_intra=0 / bframes=12 / b_pyramid=2 / b_adapt=2 / b_bias=0 / direct=3 / weightb=1 / open_gop=0 / weightp=2 / keyint=250 / keyint_min=20 / scenecut=40 / intra_refresh=0 / rc_lookahead=40 / rc=crf / mbtree=0 / crf=16.0000 / qcomp=0.60 / qpmin=0 / qpmax=69 / qpstep=4 / vbv_maxrate=62500 / vbv_bufsize=78125 / crf_max=0.0 / nal_hrd=none / ip_ratio=1.40 / pb_ratio=1.30 / aq=1:0.80
Language                    : English
Default                     : Yes
Forced                      : No
Color range                 : Limited
Color primaries             : BT.709
Transfer characteristics    : BT.709
Matrix coefficients         : BT.709

Audio #1
ID                          : 2
Format                      : DTS
Format/Info                 : Digital Theater Systems
Mode                        : 16
Format settings, Endianness : Big
Codec ID                    : A_DTS
Duration                    : 1 h 33 min
Bit rate mode               : Constant
Bit rate                    : 755 kb/s
Channel(s)                  : 2 channels
Channel positions           : Front: L R
Sampling rate               : 48.0 kHz
Frame rate                  : 93.750 FPS (512 SPF)
Bit depth                   : 16 bits
Compression mode            : Lossy
Stream size                 : 503 MiB (12%)
Title                       : Orchestral score by Jeffrey Silverman
Language                    : English
Default                     : Yes
Forced                      : No

Audio #2
ID                          : 3
Format                      : AC-3
Format/Info                 : Audio Coding 3
Format settings, Endianness : Big
Codec ID                    : A_AC3
Duration                    : 1 h 33 min
Bit rate mode               : Constant
Bit rate                    : 192 kb/s
Channel(s)                  : 2 channels
Channel positions           : Front: L R
Sampling rate               : 48.0 kHz
Frame rate                  : 31.250 FPS (1536 SPF)
Bit depth                   : 16 bits
Compression mode            : Lossy
Stream size                 : 128 MiB (3%)
Title                       : Commentary track by film historians Jeffrey Vance and Tony Maietta
Language                    : English
Service kind                : Complete Main
Default                     : No
Forced                      : No

Audio #3
ID                          : 4
Format                      : AC-3
Format/Info                 : Audio Coding 3
Format settings, Endianness : Big
Codec ID                    : A_AC3
Duration                    : 1 h 33 min
Bit rate mode               : Constant
Bit rate                    : 192 kb/s
Channel(s)                  : 2 channels
Channel positions           : Front: L R
Sampling rate               : 48.0 kHz
Frame rate                  : 31.250 FPS (1536 SPF)
Bit depth                   : 16 bits
Compression mode            : Lossy
Stream size                 : 128 MiB (3%)
Title                       : James Leedom narrates intertitles
Language                    : English
Service kind                : Complete Main
Default                     : No
Forced                      : No

Menu
00:00:00.000                : en:The Devil And Mr. Grimes
00:07:31.022                : en:Every Sparrow That Falls
00:12:45.098                : en:It Means Money
00:18:32.921                : en:Goodbye, Splutters
00:24:16.074                : en:Hot Pertaters
00:29:42.209                : en:The Abduction
00:42:00.423                : en:And Another Sparrow Leaves
00:49:16.477                : en:Get Walter - Quick!
00:58:19.830                : en:The Escape Through The Swamp
01:08:44.835                : en:The Alligators
01:16:16.143                : en:The Boat Chase
01:24:56.615                : en:A New Wing For Molly



Imagen
Imagen
Imagen
Imagen
Imagen


ed2k://|file|Sparrows.1926.720p.BluRay.DTS.mkv|4242887457|FD19590EE95FBDDD1092267C99CC7516|h=XF2KCXXGV4OK5IU6HS6JJROZZWJC3JVY|/

Subtítulos en español subidos por momix:
https://www.subdivx.com/X6XMzU0OTQzX

Vistas: 113  •  Comentarios: 7  •  Escribir comentario [ Atras ]

  • ¿Quién está conectado?
  • Hay 25 Usuarios identificados :: 2 registrados, 1 oculto y 22 invitados (basados en usuarios activos en los últimos 5 minutos)
    La mayor cantidad de usuarios identificados fue 91 el 25 Feb 2017, 15:04

    Usuarios registrados: Bing [Bot], papillon





  •  Cinefórum-Clásico recomienda

  •  Cinefórum-Clásico recomienda

  •  Cinefórum-Clásico recomienda
  • Imagen

    Imagen

    Imagen

    Imagen

    Imagen

    Revistas de Cine por Franxesco
    (clic en cada imagen)