•  Ci-Cl Archivo
  • Imagen

    Archivo Cine-Clásico
    Acceso público

  •  Cumpleaños

  •  Buscar
  • Búsqueda avanzada


  •  Últimos miembros

  •  Estilo del foro


  •  Estadísticas
  • Totales
    Mensajes totales 177561
    Temas totales 13769
    Anuncios totales: 72
    Fijos totales: 34
    Adjuntos totales: 0

    Temas por día: 7
    Mensajes por día: 91
    Usuarios por día: 3
    Temas por usuario: 3
    Mensajes por usuario: 33
    Mensajes por tema: 13

    Usuarios totales 5337
    Nuestro Miembro más reciente es mitohollywood

  •  Enlace con nosotros
  • Por favor, siéntase libre de enlazar a . Utilice el siguiente código HTML:



Imagen
chuschaos

Cinefórum-Clásico es un foro de cine que utiliza las redes KAD (eMule)

Bienvenidos

Ver último mensaje Série noire (Alain Corneau, 1979) BDRip 1080p VOSE


Serie negra (Série noire) (Alain Corneau, 1979)

Imagen
Imagen
Filmaffinity | IMDb

Guion: Georges Pérec, Alain Corneau (Novela: Jim Thompson)
Música: Duke Ellington, Juan Tizol
Fotografía: Pierre-William Glenn
Reparto: Patrick Dewaere, Myriam Boyer, Marie Trintignant, Bernard Blier, Jeanne Herviale
Productora: Gaumont
Género: Intriga | Policíaco | Crimen | Neo-noir
Grupos: Adaptaciones de Jim Thompson Novedad

Sinopsis:
Franck Poupart es un neurótico vendedor de poca monta, que vive en un siniestro suburbio de París. Su vida cambia cuando conoce a Mona, una adolescente cuya tía la ha obligado a prostituirse. A partir de ese momento, Franck se propone cambiar de vida, sobre todo para rescatar a Mona de la odiosa tutela de su tía. Pero parece que el asesinato es la única vía para conseguir tal objetivo. (FILMAFFINITY)



Gracias a quienes compartieron el BD.
Spoiler:
Dadas las (extrañas) circunstancias en las que actualmente parecemos movernos en el mundo p2p (en especial, en lo relativo a los trackers privados), de aquí en adelante haré "agradecimientos genéricos" a quienes compartieron la fuente original y no enlazaré a dicha fuente original en mis posts.
Disculpen las molestias


Detalles de la edición


Ripeo con esta configuración:
Code: Seleccionar todo
"C:\x264.exe" --preset veryslow --tune film --crf 19.0 --level 4.1 --output "C:\mi_ripeo.mkv" "C:\mi_script.avs"


Imagen
Imagen
Imagen

Sabíais que esta captura no podía faltar :mrgreen: , :mrgreen: , :mrgreen:

Imagen
Imagen
Imagen
Imagen
Imagen
Imagen


Code: Seleccionar todo
Format : Matroska
Format version : Version 4 / Version 2
File size : 10.4 GiB
Duration : 1 h 55 min
Overall bit rate : 12.8 Mb/s
Writing application : mkvmerge v19.0.0 ('Brave Captain') 64-bit
Writing library : libebml v1.3.5 + libmatroska v1.4.8

Video
ID : 1
Format : AVC
Format/Info : Advanced Video Codec
Format profile : High@L4.1
Format settings : CABAC / 4 Ref Frames
Format settings, CABAC : Yes
Format settings, RefFrames : 4 frames
Codec ID : V_MPEG4/ISO/AVC
Duration : 1 h 55 min
Bit rate : 12.6 Mb/s
Width : 1 800 pixels
Height : 1 078 pixels
Display aspect ratio : 5:3
Frame rate mode : Constant
Frame rate : 24.000 FPS
Color space : YUV
Chroma subsampling : 4:2:0
Bit depth : 8 bits
Scan type : Progressive
Bits/(Pixel*Frame) : 0.271
Stream size : 10.2 GiB (99%)
Writing library : x264 core 155 r2893 b00bcaf
Encoding settings : cabac=1 / ref=4 / deblock=1:-1:-1 / analyse=0x3:0x133 / me=umh / subme=10 / psy=1 / psy_rd=1.00:0.15 / mixed_ref=1 / me_range=24 / chroma_me=1 / trellis=2 / 8x8dct=1 / cqm=0 / deadzone=21,11 / fast_pskip=1 / chroma_qp_offset=-3 / threads=6 / lookahead_threads=1 / sliced_threads=0 / nr=0 / decimate=1 / interlaced=0 / bluray_compat=0 / constrained_intra=0 / bframes=8 / b_pyramid=2 / b_adapt=2 / b_bias=0 / direct=3 / weightb=1 / open_gop=0 / weightp=2 / keyint=250 / keyint_min=24 / scenecut=40 / intra_refresh=0 / rc_lookahead=60 / rc=crf / mbtree=1 / crf=19.0 / qcomp=0.60 / qpmin=0 / qpmax=69 / qpstep=4 / ip_ratio=1.40 / aq=1:1.00
Language : French
Default : Yes
Forced : No

Audio
ID : 2
Format : AAC
Format/Info : Advanced Audio Codec
Format profile : LC
Codec ID : A_AAC-2
Duration : 1 h 55 min
Bit rate : 161 kb/s
Channel(s) : 2 channels
Channel positions : Front: L R
Sampling rate : 48.0 kHz
Frame rate : 46.875 FPS (1024 SPF)
Compression mode : Lossy
Stream size : 133 MiB (1%)
Language : French
Writing library : qaac 2.64, CoreAudioToolbox 7.10.9.0
Encoding settings : qaac -V 127 --ignorelength --adts --no-delay -o
VBR min./avg./max. : 4 / 163 / 444 Kb/s.
Duration.......... : 6948.011 sec., (1h. 55m. 48.011s.)
Default : Yes
Forced : No

Text #1
ID : 3
Format : UTF-8
Codec ID : S_TEXT/UTF8
Codec ID/Info : UTF-8 Plain Text
Duration : 1 h 53 min
Bit rate : 35 b/s
Count of elements : 1153
Stream size : 29.6 KiB (0%)
Language : Spanish
Default : Yes
Forced : No

Text #2
ID : 4
Format : UTF-8
Codec ID : S_TEXT/UTF8
Codec ID/Info : UTF-8 Plain Text
Duration : 1 h 49 min
Bit rate : 48 b/s
Count of elements : 1404
Stream size : 39.1 KiB (0%)
Language : English
Default : No
Forced : No

Text #3
ID : 5
Format : UTF-8
Codec ID : S_TEXT/UTF8
Codec ID/Info : UTF-8 Plain Text
Duration : 1 h 53 min
Bit rate : 44 b/s
Count of elements : 1322
Stream size : 36.5 KiB (0%)
Title : French (H.I.)
Language : French
Default : No
Forced : No

Text #4
ID : 6
Format : VobSub
Muxing mode : zlib
Codec ID : S_VOBSUB
Codec ID/Info : Picture based subtitle format used on DVDs
Duration : 1 h 55 min
Bit rate : 7 272 b/s
Count of elements : 1473
Stream size : 6.02 MiB (0%)
Title : French Vobsubs (H.I.)
Language : French
Default : No
Forced : No

Menu
00:00:00.000 : en:00:00:00.000
00:11:47.332 : en:00:11:47.332
00:18:03.250 : en:00:18:03.250
00:23:11.958 : en:00:23:11.958
00:30:21.333 : en:00:30:21.333
00:35:14.708 : en:00:35:14.708
00:47:29.875 : en:00:47:29.875
01:01:42.875 : en:01:01:42.875
01:14:30.957 : en:01:14:30.957
01:21:12.582 : en:01:21:12.582
01:27:31.332 : en:01:27:31.332
01:33:49.625 : en:01:33:49.625
01:39:07.707 : en:01:39:07.707
01:46:44.707 : en:01:46:44.707





:arrow: BDRip V.O. 1080p, con subtítulos en español e inglés... y francés en el contenedor MKV (10.36 GBs)

:arrow: Subtítulos por separado
, por si alguien los necesita para... (91 KBs)

Los subtítulos en español son los compartidos en su momento por trastolillu (muchas gracias), ligeramente corregidos y resincronizados para este ripeo.



:arrow: Cómo buscar archivos en emule. Necesario para buscar lo anterior...





----------------------------------------------------


Imagen Imagen

Última versión del codec x264 (inglés) | Web en español sobre el codec x264
Manual de ripeo con x264 en línea de comandos (español) | Parámetros de codificación (inglés)
Contenedor Matroska (español) | Matroska en wikipedia (español): software de PC compatible, etc.
MKVToolnix, herramientas de edición para matroska (inglés) | Añadir cadenas de audio o subtítulos con MKVToolnix (español)
MKVExtractGui | Manual de extracción de cadenas de audio/vídeo/subtítulos en MKV (español)
Cómo crear BDRips MKV/x264 1080p o 1080p (español) | Guía avanzada para crear DVDRips MKV/x264 paso a paso (inglés)



Nota: En esta feria yo solo hago de emisario (una vez más) del habitual de la plantilla, que sus motivos tendrá (digo yo).

Vistas: 151  •  Comentarios: 2  •  Escribir comentario [ Atras ]

  • ¿Quién está conectado?
  • Hay 14 Usuarios identificados :: 5 registrados, 0 ocultos y 9 invitados (basados en usuarios activos en los últimos 5 minutos)
    La mayor cantidad de usuarios identificados fue 91 el 25 Feb 2017, 14:04

    Usuarios registrados: a.l.b.e.r.t.o, DCINE, guillemanu, Pasanen, Tronko





  •  Cinefórum-Clásico recomienda

  •  Cinefórum-Clásico recomienda

  •  Cinefórum-Clásico recomienda
  • Imagen

    Imagen

    Imagen

    Imagen

    Imagen

    Revistas de Cine por Franxesco
    (clic en cada imagen)