•  Ci-Cl Archivo
  • Imagen

    Archivo Cine-Clásico
    Acceso público

  •  Cumpleaños

  •  Buscar
  • Búsqueda avanzada


  •  Últimos miembros

  •  Estilo del foro


  •  Estadísticas
  • Totales
    Mensajes totales 160031
    Temas totales 12809
    Anuncios totales: 72
    Fijos totales: 24
    Adjuntos totales: 0

    Temas por día: 8
    Mensajes por día: 95
    Usuarios por día: 3
    Temas por usuario: 2
    Mensajes por usuario: 31
    Mensajes por tema: 12

    Usuarios totales 5242
    Nuestro Miembro más reciente es kermit2107

  •  Enlace con nosotros
  • Por favor, siéntase libre de enlazar a . Utilice el siguiente código HTML:



Imagen
Sims

Cinefórum-Clásico es un foro de cine que utiliza las redes KAD (eMule)

Bienvenidos

Ver último mensaje Aquí sin paraíso (José Antonio Quirós, 2017) SATRip VO


Imagen

IMDB: http://www.imdb.com/title/tt6768814/
FILMAFFINITY: http://www.filmaffinity.com/es/film858833.html


Director
José Antonio Quirós

Guion
José Antonio Quirós, Pablo Sánchez

Música
Mario Viñuela

Fotografía
Alejo Ramos Sabugo

Reparto
Eduardo Antuña, Fran Sariego, Lilian de Celis, Marisa Vallejo, Ana Blanco, Carmela Romero, Fernando Marrot

Productora
RTPA / El Nacedón Films
Género
Comedia. Drama | Miniserie de TV. Secuela. Vida rural
Sinopsis
"Una comedia ácida con tintes surrealistas, una historia sobre la picaresca actual, los engaños y las trampas llevados de la mejor manera posible”. La serie arranca cuando dos amigos, Grullos y Antuña (los protagonistas de ambas miniseries precedentes) se reencuentran en la habitación de un hospital.

Comentario
El director asturiano José Antonio Quirós ("Pídele cuentas al rey", "Cenizas del cielo"), tras su trilogía de documentales sobre la soledad, ha vuelto a a trabajar otra trilogía, esta vez en formato miniserie de ficción, que completa en este 2017.
En 2014 crea "Aquí el paraíso", donde un actor asturiano residente en Madrid, interpretado por Fran Sariego, "se va con lo puesto, ya está, se va", como reza el cartel. "Es una reflexión acerca de la ruleta en la que estamos inmersos, de la que todo el mundo quiere salir, pero a la que todo el mundo vuelve, con situaciones cómicas y muy surrealistas", decía Quirós. La misma historia adaptada al largometraje se estrenó en el film "Todo el tiempo del mundo", estrenándose en el Festival de cine de Gijón.

La miniserie, al igual que la segunda parte que llegaría al poco tiempo, se estrenó únicamente en la cadena autonómica asturiana, TPA, y a menos que las emitan de nuevo, la única forma de visionarlas hoy en día es a través de yomvi, la plataforma de pago que tiene una sección llamada "Universo Quirós".
En la 2ª minisierie, titulada "Aquí mi paraíso", el protagonista sería el genial Eduardo Antuña (conocido por ser el friqui de "La comunidad" o el representante de Jorge Sanz en "Qué fue de Jorge Sanz"), aislado en un idílico paraje rural, cuya paz se va transformando por medio de situaciones surrealistas que buscan arrancar la sonrisa al espectador.

Tras más de dos años de ausencia, se concluye la trilogía con tres nuevos episodios, esta vez "sin paraíso", en los que se juntan Fran y Antuña y se reencontrarán con antiguos personajes en sus aventuras (como Manolo, taxista en la serie y en la vida real, que protagonizó el hilarante documental "Objetivo Braila", disponible en la web de TPA).
"Es una comedia ácida con tintes surrealistas. Cuenta cómo dos amigos se las tienen que ingeniar mediante estrategias y engaños con el único objetivo de encontrar un mundo mejor. En esta historia tengo como referencia a la comedia italiana, ese cine que supo retratar el estado de salud de un país con ironía y humor. Fueron poco más de tres semanas entre carreteras, caserones y un pueblo perdido entre montañas donde no había ni televisiones, ni internet, ni vehículos... El 80% se rodó de manera cronológica. Por suerte, el plan de rodaje se cumplió a rajatabla, e incluso pudimos añadir esos momentos mágicos que tiene la improvisación y que hacen crecer a los personajes, combinando actores profesionales y personas que nunca habían estado delante de una cámara".

Aunque no esté rodada en asturiano, ni siquiera en el "amestau" en el que hablarían personajes asturianos como los protagonistas, se habla un español propio de Asturias, donde no se utiliza el pretérito perfecto compuesto ni se utilizan palabras como "bonito". Y es que como decía el propio Quirós en el making of, en España existe cierto complejo por los dialectos y acentos, por culpa del doblaje. Al contrario que en otros países, donde autores cuentan en slang o dialecto historias universales, y no pasa nada.

Making of de la 1ª miniserie y la película: https://vimeo.com/116274839
Making of de la 2ª miniserie: https://vimeo.com/116284721

----------------------------------------------------------------------------------------------

Code: Seleccionar todo
General
Complete name               : Aqui.sin.paraiso.E01.El.reencuentro.avi
Format                      : AVI
Format/Info                 : Audio Video Interleave
File size                   : 1.92 GiB
Duration                    : 50 min 15 s
Overall bit rate mode       : Variable
Overall bit rate            : 5 473 kb/s

Video
ID                          : 0
Format                      : MPEG Video
Format version              : Version 2
Format profile              : Main@Main
Format settings, BVOP       : Yes
Format settings, Matrix     : Custom
Format settings, GOP        : M=3, N=12
Format settings, picture st : Frame
Codec ID                    : MPEG
Codec ID/Info               : Chromatic MPEG 1 Video I Frame
Duration                    : 50 min 15 s
Bit rate mode               : Variable
Bit rate                    : 5 268 kb/s
Maximum bit rate            : 15.0 Mb/s
Width                       : 720 pixels
Height                      : 576 pixels
Display aspect ratio        : 16:9
Frame rate                  : 25.000 FPS
Standard                    : PAL
Color space                 : YUV
Chroma subsampling          : 4:2:0
Bit depth                   : 8 bits
Scan type                   : Interlaced
Scan order                  : Top Field First
Compression mode            : Lossy
Bits/(Pixel*Frame)          : 0.508
Stream size                 : 1.85 GiB (96%)

Audio
ID                          : 1
Format                      : MPEG Audio
Format version              : Version 1
Format profile              : Layer 2
Codec ID                    : 50
Duration                    : 50 min 15 s
Bit rate mode               : Constant
Bit rate                    : 192 kb/s
Channel(s)                  : 2 channels
Sampling rate               : 48.0 kHz
Compression mode            : Lossy
Stream size                 : 69.0 MiB (4%)
Alignment                   : Aligned on interleaves
Interleave, duration        : 24  ms (0.60 video frame)


Imagen
Imagen
Imagen

ed2k://|file|Aqui.sin.paraiso.E01.El.reencuentro.avi|2063355308|A9F68E4042D9B037A8BEEA4886F36DCA|h=NVW3TPT4II5Y3EVY2CZL6KS43QXTEA7R|/

ed2k://|file|Aqui.sin.paraiso.E02.La.marquesa.avi|1900050096|54B665500C11A647668978F03DF38D0F|h=XN6WP7JBY3QE3ZNA7QUY3BE5ZT34NZVO|/

ed2k://|file|Aqui.sin.paraiso.E03.La.Ribera.Gloriosa.avi|2263136468|014E28FFA3E9AFF1C4B30A1DDDA8692C|h=FWDLW3GXDLMVJ3ZYJYVZHKQZAM6UKAU5|/

:hi:

Vistas: 92  •  Comentarios: 1  •  Escribir comentario [ Atras ]

  • ¿Quién está conectado?
  • Hay 7 Usuarios identificados :: 4 registrados, 1 oculto y 2 invitados (basados en usuarios activos en los últimos 5 minutos)
    La mayor cantidad de usuarios identificados fue 91 el 25 Feb 2017, 16:04

    Usuarios registrados: Arthur James Hamp, hdjzgz, JThunders, Mercedes





  •  Cinefórum-Clásico recomienda

  •  Cinefórum-Clásico recomienda

  •  Cinefórum-Clásico recomienda
  • Imagen

    Imagen

    Imagen

    Imagen

    Imagen

    Revistas de Cine por Franxesco
    (clic en cada imagen)