•  Ci-Cl Archivo
  • Imagen

    Archivo Cine-Clásico
    Acceso público

  •  Cumpleaños

  •  Buscar
  • Búsqueda avanzada


  •  Últimos miembros

  •  Estilo del foro


  •  Estadísticas
  • Totales
    Mensajes totales 150820
    Temas totales 12194
    Anuncios totales: 72
    Fijos totales: 24
    Adjuntos totales: 0

    Temas por día: 8
    Mensajes por día: 95
    Usuarios por día: 3
    Temas por usuario: 2
    Mensajes por usuario: 29
    Mensajes por tema: 12

    Usuarios totales 5193
    Nuestro Miembro más reciente es elaguainmovil

  •  Enlace con nosotros
  • Por favor, siéntase libre de enlazar a . Utilice el siguiente código HTML:



Imagen
mifune
¡Feliz Año Nuevo!
Cinefórum-Clásico es un foro de cine P2P, que utiliza las redes KAD (eMule)

Bienvenidos

Ver último mensaje Allez, Eddy! (Gert Embrechts, 2012) DVDRip VOSE


Imagen

IMDB: http://www.imdb.com/title/tt1817088/
FILMAFFINITY: http://www.filmaffinity.com/es/film234851.html


Guión y dirección
Gert Embrechts

Música
Gast Waltzing

Fotografía
Bert Pot

Reparto
Jelte Blommaert, Peter Van den Begin, Barbara Sarafian, Mathias Vergels, Lotte Bode, Silke Cnockaert, Stefaan Degand, Bruno Georis

Productora
Ciné Cri De Coeur
Género
Drama. Comedia | Ciclismo. Años 70
Web oficial
http://www.allezeddy.be/
Sinopsis
Freddy tiene once años y le encanta montar en bici. Su padre es el carnicero de un pequeño pueblo, cuya apacible vida se ve perturbada por la apertura del primer supermercado, en 1975. El gerente de este nuevo establecimiento organiza una carrera ciclista para promocionar su negocio con un suculento premio: conocer al mítico Eddy Merckx. Al incumplir la prohibición paterna de participar, el niño se adentra en una etapa que cambiará no sólo su existencia sino la de toda la comunidad.

Biografía del director
Gert Embrechts estudió cine en el HIBK St. Lucas de Bruselas y completó su formación con talleres del South by Southwest en Roma y el Binger Film Institute en Ámsterdam. Ha trabajado como asistente de dirección durante más de diez años, colaborando con directores como Ben Sombogaart, Frank Van Passel o Peter Greenaway. Sus dos cortometrajes, 13 (1999) y Vincent (2001), han sido premiados y vendidos internacionalmente, y es el responsable del guión de Stricken (2009), un éxito de taquilla en Holanda, basado en la novela del mismo título escrita por Kluun. Allez, Eddy! es su debut como director de largometrajes.


Code: Seleccionar todo
General
Complete name               : Allez.Eddy.2012.DVDRip.XviD-EXViD.avi
Format                      : AVI
Format/Info                 : Audio Video Interleave
File size                   : 700 MiB
Duration                    : 1 h 35 min
Overall bit rate mode       : Variable
Overall bit rate            : 1 023 kb/s
Writing application         : VirtualDubMod 1.5.10.2 (build 2540/release)
Writing library             : VirtualDubMod build 2540/release

Video
ID                          : 0
Format                      : MPEG-4 Visual
Format profile              : Advanced Simple@L5
Format settings, BVOP       : 2
Format settings, QPel       : No
Format settings, GMC        : No warppoints
Format settings, Matrix     : Default (H.263)
Muxing mode                 : Packed bitstream
Codec ID                    : XVID
Codec ID/Hint               : XviD
Duration                    : 1 h 35 min
Bit rate                    : 888 kb/s
Width                       : 640 pixels
Height                      : 272 pixels
Display aspect ratio        : 2.35:1
Frame rate                  : 25.000 FPS
Color space                 : YUV
Chroma subsampling          : 4:2:0
Bit depth                   : 8 bits
Scan type                   : Progressive
Compression mode            : Lossy
Bits/(Pixel*Frame)          : 0.204
Stream size                 : 608 MiB (87%)
Writing library             : XviD 62

Audio
ID                          : 1
Format                      : MPEG Audio
Format version              : Version 1
Format profile              : Layer 3
Mode                        : Joint stereo
Mode extension              : MS Stereo
Codec ID                    : 55
Codec ID/Hint               : MP3
Duration                    : 1 h 35 min
Bit rate mode               : Variable
Bit rate                    : 128 kb/s
Channel(s)                  : 2 channels
Sampling rate               : 48.0 kHz
Compression mode            : Lossy
Stream size                 : 83.8 MiB (12%)
Alignment                   : Aligned on interleaves
Interleave, duration        : 24  ms (0.60 video frame)
Interleave, preload duratio : 508  ms
Writing library             : LAME3.98r
Encoding settings           : -m j -V 4 -q 2 -lowpass 17 --abr 128



Imagen
Imagen
Imagen


ed2k://|file|Allez.Eddy.2012.DVDRip.XviD-EXViD.avi|734408704|A9B7551614535B6F369763513BA12E37|h=4LOM2U2D6T6GJ23MVVU2PAPFQ2PNLCZU|/

Subtítulos en español:
http://www.subdivx.com/X6XMzAzNTU4X-all ... -2012.html

:hi:

Vistas: 97  •  Comentarios: 1  •  Escribir comentario [ Atras ]

  • ¿Quién está conectado?
  • Hay 9 Usuarios identificados :: 3 registrados, 1 oculto y 5 invitados (basados en usuarios activos en los últimos 5 minutos)
    La mayor cantidad de usuarios identificados fue 75 el 18 May 2016, 22:23

    Usuarios registrados: Arthur James Hamp, jomime, RickBrice





  •  Cinefórum-Clásico recomienda

  •  Cinefórum-Clásico recomienda

  •  Cinefórum-Clásico recomienda
  • Imagen

    Imagen

    Imagen

    Imagen

    Imagen

    Revistas de Cine por Franxesco
    (clic en cada imagen)