•  Ci-Cl Archivo
  • Imagen

    Archivo Cine-Clásico
    Acceso público

  •  Cumpleaños

  •  Buscar
  • Búsqueda avanzada


  •  Últimos miembros

  •  Estilo del foro


  •  Estadísticas
  • Totales
    Mensajes totales 157571
    Temas totales 12696
    Anuncios totales: 72
    Fijos totales: 24
    Adjuntos totales: 0

    Temas por día: 8
    Mensajes por día: 95
    Usuarios por día: 3
    Temas por usuario: 2
    Mensajes por usuario: 30
    Mensajes por tema: 12

    Usuarios totales 5230
    Nuestro Miembro más reciente es marisol631

  •  Enlace con nosotros
  • Por favor, siéntase libre de enlazar a . Utilice el siguiente código HTML:



Imagen
Sims
Cinefórum-Clásico es un foro de cine P2P, que utiliza las redes KAD (eMule)

Bienvenidos

Ver último mensaje Boomerang! (Elia Kazan, 1947) BDRip 1080p Dual SE


Previamente en esta web


El justiciero (Boomerang!) (Elia Kazan, 1947)

Imagen
Imagen
Filmaffinity | IMDb


Guion: Richard Murphy
Música: David Buttolph
Fotografía: Norbert Brodine
Reparto: Dana Andrews, Jane Wyatt, Lee J. Cobb, Arthur Kennedy, Ed Begley, Sam Levene, Karl Malden
Productora: 20th Century Fox
Género: Cine negro | Intriga | Drama | Crimen | Drama judicial | Basado en hechos reales
Sinopsis:
En una pequeña ciudad de Connecticut, un sacerdote es asesinado en plena calle, y los ciudadanos exigen una intervención contundente de la policía. Todos los testigos identifican a John Waldron como el autor del crimen, pero éste se declara inocente, aunque nadie le cree. (FILMAFFINITY)



Gracias a quienes compartieron el BD 1080p.
Spoiler:
Dadas las (extrañas) circunstancias en las que actualmente parecemos movernos en el mundo p2p (en especial, en lo relativo a los trackers privados), de aquí en adelante haré "agradecimientos genéricos" a quienes compartieron la fuente original y no enlazaré a dicha fuente original en mis posts.
Disculpen las molestias


Detalles de la edición


Ripeo con esta configuración:
Code: Seleccionar todo
"C:\x264.exe" --preset veryslow --tune film --crf 18.7 --no-chroma-me --level 4.1 --output "C:\mi_ripeo.mkv" "C:\mi_script.avs"


Imagen
Imagen
Imagen
Imagen
Imagen
Imagen
Imagen
Imagen
Imagen

Code: Seleccionar todo
Format : Matroska
Format version : Version 4 / Version 2
File size : 6.48 GiB
Duration : 1 h 28 min
Overall bit rate : 10.5 Mb/s
Writing application : mkvmerge v9.9.0 ('Pick Up') 64bit
Writing library : libebml v1.3.4 + libmatroska v1.4.5

Video
ID : 1
Format : AVC
Format/Info : Advanced Video Codec
Format profile : High@L4.1
Format settings, CABAC : Yes
Format settings, ReFrames : 5 frames
Codec ID : V_MPEG4/ISO/AVC
Duration : 1 h 28 min
Bit rate : 10.2 Mb/s
Width : 1 478 pixels
Height : 1 080 pixels
Display aspect ratio : 4:3
Frame rate mode : Constant
Frame rate : 23.976 (24000/1001) FPS
Color space : YUV
Chroma subsampling : 4:2:0
Bit depth : 8 bits
Scan type : Progressive
Bits/(Pixel*Frame) : 0.267
Stream size : 6.30 GiB (97%)
Writing library : x264 core 148 r2762 90a61ec
Encoding settings : cabac=1 / ref=5 / deblock=1:-1:-1 / analyse=0x3:0x133 / me=umh / subme=10 / psy=1 / psy_rd=1.00:0.15 / mixed_ref=1 / me_range=24 / chroma_me=0 / trellis=2 / 8x8dct=1 / cqm=0 / deadzone=21,11 / fast_pskip=1 / chroma_qp_offset=-3 / threads=6 / lookahead_threads=1 / sliced_threads=0 / nr=0 / decimate=1 / interlaced=0 / bluray_compat=0 / constrained_intra=0 / bframes=8 / b_pyramid=2 / b_adapt=2 / b_bias=0 / direct=3 / weightb=1 / open_gop=0 / weightp=2 / keyint=250 / keyint_min=23 / scenecut=40 / intra_refresh=0 / rc_lookahead=60 / rc=crf / mbtree=1 / crf=18.7 / qcomp=0.60 / qpmin=0 / qpmax=69 / qpstep=4 / ip_ratio=1.40 / aq=1:1.00
Language : English
Default : Yes
Forced : No

Audio #1
ID : 2
Format : AAC
Format/Info : Advanced Audio Codec
Format profile : LC
Codec ID : A_AAC
Duration : 1 h 28 min
Bit rate : 103 kb/s
Channel(s) : 2 channels
Channel positions : Front: L R
Sampling rate : 48.0 kHz
Frame rate : 46.875 FPS (1024 spf)
Compression mode : Lossy
Stream size : 64.8 MiB (1%)
Language : English
Writing library : qaac 2.62, CoreAudioToolbox 7.10.9.0
Encoding settings : qaac -V 127 --ignorelength --adts --no-delay -o
VBR min./avg./max. : 6 / 104 / 216 Kb/s.
Default : Yes
Forced : No

Audio #2
ID : 3
Format : AAC
Format/Info : Advanced Audio Codec
Format profile : LC
Codec ID : A_AAC
Duration : 1 h 28 min
Bit rate : 171 kb/s
Channel(s) : 2 channels
Channel positions : Front: L R
Sampling rate : 48.0 kHz
Frame rate : 46.875 FPS (1024 spf)
Compression mode : Lossy
Stream size : 108 MiB (2%)
Title : Doblaje para TVE de 1991
Language : Spanish
Writing library : qaac 2.62, CoreAudioToolbox 7.10.9.0
Encoding settings : qaac -V 127 --ignorelength --adts --no-delay -o
VBR min./avg./max. : 6 / 173 / 293 Kb/s.
Default : No
Forced : No

Text #1
ID : 4
Format : UTF-8
Codec ID : S_TEXT/UTF8
Codec ID/Info : UTF-8 Plain Text
Duration : 1 h 26 min
Bit rate : 93 b/s
Count of elements : 1460
Stream size : 59.4 KiB (0%)
Title : Castellano
Language : Spanish
Default : Yes
Forced : No

Text #2
ID : 5
Format : UTF-8
Codec ID : S_TEXT/UTF8
Codec ID/Info : UTF-8 Plain Text
Duration : 1 h 26 min
Bit rate : 94 b/s
Count of elements : 1461
Stream size : 60.4 KiB (0%)
Title : Español neutro
Language : Spanish
Default : No
Forced : No

Text #3
ID : 6
Format : UTF-8
Codec ID : S_TEXT/UTF8
Codec ID/Info : UTF-8 Plain Text
Duration : 1 h 26 min
Bit rate : 103 b/s
Count of elements : 1412
Stream size : 65.8 KiB (0%)
Language : English
Default : No
Forced : No

Text #4
ID : 7
Format : UTF-8
Codec ID : S_TEXT/UTF8
Codec ID/Info : UTF-8 Plain Text
Duration : 1 h 26 min
Bit rate : 105 b/s
Count of elements : 1405
Stream size : 67.0 KiB (0%)
Title : H.I.
Language : English
Default : No
Forced : No

Text #5
ID : 8
Format : VobSub
Muxing mode : zlib
Codec ID : S_VOBSUB
Codec ID/Info : Picture based subtitle format used on DVDs
Duration : 1 h 26 min
Bit rate : 8 068 b/s
Count of elements : 1444
Stream size : 4.99 MiB (0%)
Title : English Vobsubs (H.I.)
Language : English
Default : No
Forced : No

Menu
00:00:00.000 : en:00:00:00.000
00:01:19.079 : en:00:01:19.079
00:04:34.274 : en:00:04:34.274
00:08:27.340 : en:00:08:27.340
00:12:52.605 : en:00:12:52.605
00:14:54.227 : en:00:14:54.227
00:16:54.847 : en:00:16:54.847
00:21:34.793 : en:00:21:34.793
00:24:14.953 : en:00:24:14.953
00:28:04.516 : en:00:28:04.516
00:33:35.513 : en:00:33:35.513
00:39:19.357 : en:00:39:19.357
00:45:00.740 : en:00:45:00.740
00:48:53.430 : en:00:48:53.430
00:54:29.391 : en:00:54:29.391
00:58:53.196 : en:00:58:53.196
01:04:40.126 : en:01:04:40.126
01:07:28.544 : en:01:07:28.544
01:11:37.376 : en:01:11:37.376
01:13:31.282 : en:01:13:31.282
01:17:29.228 : en:01:17:29.228
01:19:33.852 : en:01:19:33.852
01:25:03.682 : en:01:25:03.682
01:27:13.645 : en:01:27:13.645





:arrow: BDRip Dual (V.O. - doblaje en castellano) 1080p, con subtítulos en español e inglés en el contenedor MKV (6.48 GBs)

:arrow: Subtítulos por separado
, por si alguien los necesita para... (169 KBs)


:arrow: Cómo buscar archivos en emule. Necesario para buscar lo anterior...



Los subtítulos en castellano fueron tomados de chuschao (muchas gracias); los subtítulos en español neutro e inglés de marlowe62 (también muchas gracias), resincronizados para este ripeo.


Según me indica el inigualable Santi(agoo), sincronizador también en esta ocasión, el audio doblado se corresponde con el doblaje para TVE de 1991. La fuente utilizada es el dvdrip de Marc27, readaptado para este ripeo.

No es un doblaje agradable para mi gusto, si bien tiene un plantel de nombres bastante aceptable, la voz en off, que es la misma que la de la persona que narra muchos documentales de la 2, lo que hace es transportarte al mundo de los animalitos, y distanciarte de la trama judicial. El resto de las voces, pues tampoco, entonaciones demasiado "modernas". Pero para ciegos y personas con dificultades para leer subtítulos servirá.



----------------------------------------------------


Imagen Imagen

Última versión del codec x264 (inglés) | Web en español sobre el codec x264
Manual de ripeo con x264 en línea de comandos (español) | Parámetros de codificación (inglés)
Contenedor Matroska (español) | Matroska en wikipedia (español): software de PC compatible, etc.
MKVToolnix, herramientas de edición para matroska (inglés) | Añadir cadenas de audio o subtítulos con MKVToolnix (español)
MKVExtractGui | Manual de extracción de cadenas de audio/vídeo/subtítulos en MKV (español)
Cómo crear BDRips MKV/x264 1080p o 1080p (español) | Guía avanzada para crear DVDRips MKV/x264 paso a paso (inglés)

Vistas: 170  •  Comentarios: 7  •  Escribir comentario [ Atras ]

  • ¿Quién está conectado?
  • Hay 15 Usuarios identificados :: 9 registrados, 2 ocultos y 4 invitados (basados en usuarios activos en los últimos 5 minutos)
    La mayor cantidad de usuarios identificados fue 91 el 25 Feb 2017, 16:04

    Usuarios registrados: asung, Bing [Bot], cagney, carioco, Danyyyy, kabuki71, Olaba, tonapar1, yojimbo





  •  Cinefórum-Clásico recomienda

  •  Cinefórum-Clásico recomienda

  •  Cinefórum-Clásico recomienda
  • Imagen

    Imagen

    Imagen

    Imagen

    Imagen

    Revistas de Cine por Franxesco
    (clic en cada imagen)