•  Ci-Cl Archivo
  • Imagen

    Archivo Cine-Clásico
    Acceso público

  •  Cumpleaños

  •  Buscar
  • Búsqueda avanzada


  •  Últimos miembros

  •  Estilo del foro


  •  Estadísticas
  • Totales
    Mensajes totales 162636
    Temas totales 12954
    Anuncios totales: 72
    Fijos totales: 24
    Adjuntos totales: 0

    Temas por día: 8
    Mensajes por día: 95
    Usuarios por día: 3
    Temas por usuario: 2
    Mensajes por usuario: 31
    Mensajes por tema: 13

    Usuarios totales 5254
    Nuestro Miembro más reciente es gabi

  •  Enlace con nosotros
  • Por favor, siéntase libre de enlazar a . Utilice el siguiente código HTML:



Imagen
Sims

Cinefórum-Clásico es un foro de cine que utiliza las redes KAD (eMule)

Bienvenidos

Ver último mensaje Borotalco (Carlo Verdone, 1982) DVDRip VOSFr


Imagen

IMDB: http://www.imdb.com/title/tt0083680/
FILMAFFINITY: https://www.filmaffinity.com/es/film216729.html


Director
Carlo Verdone

Guion
Enrico Oldoini, Carlo Verdone

Música
Fabio Liberatori, Stadio

Fotografía
Ennio Guarnieri

Reparto
Carlo Verdone, Eleonora Giorgi, Christian De Sica, Angelo Infanti, Enrico Papa, Roberta Manfredi, Mario Brega, Isa Gallinelli

Productora
Intercapital
Género
Comedia
Sinopsis
Sergio, un chico tímido y torpe, cuando está a punto de casarse con su novia, consigue por fin un empleo como representante de una editorial especializada en publicaciones musicales.

Premios
1981: Premios David di Donatello: 5 premios: Mejor película, actor, actriz, actor secundario y BSO.
1982: Festival de Montreal: Mejor actriz (Eleonora Giorgi)

Críticas
Dirigida e interpretada por uno de los valores de la nueva comedia italiana, esta farsa romántico-costumbrista se ceba en la mentira que vive un vendedor de enciclopedias que se hace pasar por lo que no es. Un enredo alimentado de los miedos de la sociedad consumista en la que vivimos. (Anotonio Albert: El País, 1995, con motivo de un pase en Telecinco a las 11 de la mañana...)
------------------------------------------------------------------------------------
Comedia italiana con la atractiva Eleonora Giorgi. Se centra en un personaje cándido e ingenuo que desea casarse con una chica y halla un importante cargo en una editorial que podrá hacer realidad sus sueños. Interpretada y dirigida por Carlo Verdone, conspicuo miembro de la nueva hornada de comedias italianas, muy poco estrenado en España. (Jordi Batlle: El País)
------------------------------------------------------------------------------------------------------------

Code: Seleccionar todo
General
Complete name               : [DivX-ITA] - Borotalco - 1982 - 97 min (Carlo Verdone, Eleonora Giorgi, Christian De Sica).avi
Format                      : AVI
Format/Info                 : Audio Video Interleave
File size                   : 1.09 GiB
Duration                    : 1 h 36 min
Overall bit rate mode       : Variable
Overall bit rate            : 1 620 kb/s
Writing application         : VirtualDubMod 1.5.10.2 (build 2540/release)
Writing library             : VirtualDubMod build 2540/release

Video
ID                          : 0
Format                      : MPEG-4 Visual
Format profile              : Advanced Simple@L5
Format settings, BVOP       : 2
Format settings, QPel       : No
Format settings, GMC        : No warppoints
Format settings, Matrix     : Default (MPEG)
Codec ID                    : XVID
Codec ID/Hint               : XviD
Duration                    : 1 h 36 min
Bit rate                    : 1 430 kb/s
Width                       : 576 pixels
Height                      : 352 pixels
Display aspect ratio        : 16:10
Frame rate                  : 25.000 FPS
Color space                 : YUV
Chroma subsampling          : 4:2:0
Bit depth                   : 8 bits
Scan type                   : Interlaced
Scan order                  : Bottom Field First
Compression mode            : Lossy
Bits/(Pixel*Frame)          : 0.282
Stream size                 : 989 MiB (88%)
Writing library             : XviD 1.2.1 (UTC 2008-12-04)

Audio
ID                          : 1
Format                      : MPEG Audio
Format version              : Version 1
Format profile              : Layer 3
Codec ID                    : 55
Codec ID/Hint               : MP3
Duration                    : 1 h 36 min
Bit rate mode               : Variable
Bit rate                    : 177 kb/s
Minimum bit rate            : 32.0 kb/s
Channel(s)                  : 2 channels
Sampling rate               : 48.0 kHz
Compression mode            : Lossy
Stream size                 : 122 MiB (11%)
Alignment                   : Aligned on interleaves
Interleave, duration        : 24  ms (0.60 video frame)
Interleave, preload duratio : 542  ms
Writing library             : LAME3.97
Encoding settings           : -m s -V 4 -q 0 -lowpass 17.5 --vbr-old -b 32


Imagen
Imagen
Imagen

ed2k://|file|[DivX-ITA]%20-%20Borotalco%20-%201982%20-%2097%20min%20(Carlo%20Verdone,%20Eleonora%20Giorgi,%20Christian%20De%20Sica).avi|1174288384|90C8099082F5F3850E4135EA974F8EFE|h=LUS3EGQP5EEEZ7RAMVOENCIQ54H3BVHB|/

Subtítulos en francés:
https://www.opensubtitles.org/en/subtit ... rotalco-fr

:hi:

Vistas: 75  •  Comentarios: 3  •  Escribir comentario [ Atras ]

  • ¿Quién está conectado?




  •  Cinefórum-Clásico recomienda

  •  Cinefórum-Clásico recomienda

  •  Cinefórum-Clásico recomienda
  • Imagen

    Imagen

    Imagen

    Imagen

    Imagen

    Revistas de Cine por Franxesco
    (clic en cada imagen)