•  Ci-Cl Archivo
  • Imagen

    Archivo Cine-Clásico
    Acceso público

  •  Cumpleaños

  •  Buscar
  • Búsqueda avanzada


  •  Últimos miembros

  •  Estilo del foro


  •  Estadísticas
  • Totales
    Mensajes totales 174311
    Temas totales 13547
    Anuncios totales: 72
    Fijos totales: 34
    Adjuntos totales: 0

    Temas por día: 7
    Mensajes por día: 92
    Usuarios por día: 3
    Temas por usuario: 3
    Mensajes por usuario: 33
    Mensajes por tema: 13

    Usuarios totales 5308
    Nuestro Miembro más reciente es ameg2709

  •  Enlace con nosotros
  • Por favor, siéntase libre de enlazar a . Utilice el siguiente código HTML:



Imagen
chuschaos

Cinefórum-Clásico es un foro de cine que utiliza las redes KAD (eMule)

Bienvenidos

Ver último mensaje Village of the Damned (Wolf Rilla, 1960) HDTVRip 720p Dual SE


Village of the Damned

Wolf Rilla, 1960




Imagen



Imagen


El pueblo de los malditos


Título original Village of the Damned
Año 1960
Duración 78 min.
País Imagen
Dirección Wolf Rilla
Guion Stirling Silliphant, Wolf Rilla, George Barclay (Novela: John Wyndham)
Música Ron Goodwin
Fotografía Geoffrey Faithfull (B&W)
Reparto
George Sanders, Barbara Shelley, Martin Stephens, Michael Gwynne, Laurence Naismith, John Phillips, Richard Vernon

Productora MGM
Género Terror | Extraterrestres. Serie B
Sinopsis
Inexplicablemente, los habitantes de un apacible pueblo pierden el conocimiento durante unas horas. Poco después se produce otro extraño e inquietante fenómeno que parece estar relacionado con aquel desmayo: muchas mujeres del pueblo descubren que están encintas. Agentes del gobierno supervisan estos embarazos para investigar si existe o no tal relación. Cuando las madres dan a luz, resulta que curiosamente todos los recién nacidos son albinos y tienen unos intensos ojos azules, además de una increíble inteligencia; pero a medida que crecen muestran una conducta tan sobrenatural como inhumana. (FILMAFFINITY)

Críticas
"Unos niños de ojos eléctricos y... un clásico al que Carpenter volverá en 1995. Buena"

Luis Martínez: Diario El País.



Code: Seleccionar todo
General
Unique ID                                : 228024319221342966251688204204910114956 (0xAB8BE2EDF94198EC8658FCFE4B64F88C)
Complete name                            : D:\Incoming\1960-Village.of.the.Damned.HDTV.x264.720p.AC3[DMMD].mkv
Format                                   : Matroska
Format version                           : Version 4 / Version 2
File size                                : 2.38 GiB
Duration                                 : 1 h 17 min
Overall bit rate                         : 4 406 kb/s
Movie name                               : 1960-Village.of.the.Damned.HDTV.x264.720p.AC3[DMMD].mkv
Encoded date                             : UTC 2017-11-19 00:06:20
Writing application                      : mkvmerge v17.0.0 ('Be Ur Friend') 64-bit
Writing library                          : libebml v1.3.5 + libmatroska v1.4.8
Attachments                              : 1 / 2 / 3

Video
ID                                       : 1
Format                                   : AVC
Format/Info                              : Advanced Video Codec
Format profile                           : High@L4.1
Format settings                          : CABAC / 9 Ref Frames
Format settings, CABAC                   : Yes
Format settings, RefFrames               : 9 frames
Codec ID                                 : V_MPEG4/ISO/AVC
Duration                                 : 1 h 17 min
Bit rate                                 : 3 765 kb/s
Width                                    : 1 280 pixels
Height                                   : 720 pixels
Display aspect ratio                     : 16:9
Frame rate mode                          : Constant
Frame rate                               : 23.976 (24000/1001) FPS
Color space                              : YUV
Chroma subsampling                       : 4:2:0
Bit depth                                : 8 bits
Scan type                                : Progressive
Bits/(Pixel*Frame)                       : 0.170
Stream size                              : 2.03 GiB (85%)
Writing library                          : x264 core 152 r2851kMod ba24899
Encoding settings                        : cabac=1 / ref=9 / deblock=1:-3:-3 / analyse=0x3:0x133 / me=umh / subme=11 / psy=1 / fade_compensate=0.00 / psy_rd=1.00:0.00 / mixed_ref=1 / me_range=24 / chroma_me=1 / trellis=2 / 8x8dct=1 / cqm=0 / deadzone=21,11 / fast_pskip=0 / chroma_qp_offset=-2 / threads=6 / lookahead_threads=1 / sliced_threads=0 / nr=0 / decimate=0 / interlaced=0 / bluray_compat=0 / constrained_intra=0 / bframes=9 / b_pyramid=2 / b_adapt=2 / b_bias=0 / direct=3 / weightb=1 / open_gop=0 / weightp=2 / keyint=250 / keyint_min=23 / scenecut=40 / intra_refresh=0 / rc=crf / mbtree=0 / crf=19.0000 / qcomp=0.60 / qpmin=0 / qpmax=69 / qpstep=4 / ip_ratio=1.40 / pb_ratio=1.30 / aq=3:1.00
Language                                 : English
Default                                  : Yes
Forced                                   : No

Audio #1
ID                                       : 2
Format                                   : AC-3
Format/Info                              : Audio Coding 3
Codec ID                                 : A_AC3
Duration                                 : 1 h 17 min
Bit rate mode                            : Constant
Bit rate                                 : 448 kb/s
Channel(s)                               : 6 channels
Channel positions                        : Front: L C R, Side: L R, LFE
Sampling rate                            : 48.0 kHz
Frame rate                               : 31.250 FPS (1536 SPF)
Bit depth                                : 16 bits
Compression mode                         : Lossy
Stream size                              : 247 MiB (10%)
Language                                 : English
Service kind                             : Complete Main
Default                                  : No
Forced                                   : No

Audio #2
ID                                       : 3
Format                                   : AC-3
Format/Info                              : Audio Coding 3
Codec ID                                 : A_AC3
Duration                                 : 1 h 17 min
Bit rate mode                            : Constant
Bit rate                                 : 192 kb/s
Channel(s)                               : 1 channel
Channel positions                        : Front: C
Sampling rate                            : 48.0 kHz
Frame rate                               : 31.250 FPS (1536 SPF)
Bit depth                                : 16 bits
Compression mode                         : Lossy
Stream size                              : 106 MiB (4%)
Language                                 : Spanish
Service kind                             : Complete Main
Default                                  : No
Forced                                   : No

Text #1
ID                                       : 4
Format                                   : UTF-8
Codec ID                                 : S_TEXT/UTF8
Codec ID/Info                            : UTF-8 Plain Text
Duration                                 : 1 h 15 min
Bit rate                                 : 54 b/s
Count of elements                        : 792
Stream size                              : 30.2 KiB (0%)
Language                                 : Spanish
Default                                  : Yes
Forced                                   : No

Text #2
ID                                       : 5
Format                                   : UTF-8
Codec ID                                 : S_TEXT/UTF8
Codec ID/Info                            : UTF-8 Plain Text
Duration                                 : 1 h 13 min
Bit rate                                 : 0 b/s
Count of elements                        : 5
Stream size                              : 162 Bytes (0%)
Title                                    : Forzados
Language                                 : Spanish
Default                                  : No
Forced                                   : No

Text #3
ID                                       : 6
Format                                   : UTF-8
Codec ID                                 : S_TEXT/UTF8
Codec ID/Info                            : UTF-8 Plain Text
Duration                                 : 1 h 14 min
Bit rate                                 : 58 b/s
Count of elements                        : 784
Stream size                              : 31.9 KiB (0%)
Language                                 : English
Default                                  : No
Forced                                   : No

Menu
00:00:00.083                             : en:Fainting Spellbound
00:03:51.231                             : en:Credits
00:05:00.133                             : en:Borderline
00:08:13.826                             : en:Out Cold
00:13:25.971                             : en:Awakening
00:16:40.833                             : en:Cause Unknown
00:20:17.716                             : en:Happy News
00:23:30.208                             : en:Widespread Conception
00:28:02.313                             : en:Whose Baby?
00:31:33.892                             : en:Happy Birthright
00:33:27.338                             : en:Child Developments
00:39:34.705                             : en:Vision Of Intellect
00:42:46.030                             : en:A Mass Mind
00:49:15.452                             : en:Questions Better Unasked
00:50:16.346                             : en:Car Crashed
00:55:12.058                             : en:Self-Inflicted
00:57:53.636                             : en:Brick Wall
01:00:40.436                             : en:Inflamed Mob
01:03:40.983                             : en:Leave Us Alone
01:06:15.137                             : en:Too Much Attention
01:08:58.634                             : en:Look After Her
01:13:25.534                             : en:Brick By Brick
01:16:11.533                             : en:End Credits


Vídeo:Encode a partir de una emisión televisiva, en algunas secuencias de la peli durante unos segundos aparece el logo del Tcm.

Audio y subtítulos: Para la V.O. los propios de la emisión televisiva, para los castellanos del Dvd pal.


Encode 720p Vs Dvd (Pal) Vs Dvd (Ntsc)

Imagen
Imagen
Imagen


Imagen


CAPTURAS

Imagen
Imagen
Imagen
Imagen
Imagen
Imagen
Imagen
Imagen




Enlaces de descarga

Imagen

ed2k://|file|1960-Village.of.the.Damned.HDTV.x264.720p.AC3[DMMD].mkv|2552962468|D20C64942FC554C7636408DD54AC3634|h=CCXJJD26AM2IMQLL2W7WCI44M3OPQLMM|/



Imagen

Vistas: 170  •  Comentarios: 5  •  Escribir comentario [ Atras ]

  • ¿Quién está conectado?
  • Hay 10 Usuarios identificados :: 1 registrado, 0 ocultos y 9 invitados (basados en usuarios activos en los últimos 5 minutos)
    La mayor cantidad de usuarios identificados fue 91 el 25 Feb 2017, 15:04

    Usuarios registrados: Saturnal





  •  Cinefórum-Clásico recomienda

  •  Cinefórum-Clásico recomienda

  •  Cinefórum-Clásico recomienda
  • Imagen

    Imagen

    Imagen

    Imagen

    Imagen

    Revistas de Cine por Franxesco
    (clic en cada imagen)