•  Ci-Cl Archivo
  • Imagen

    Archivo Cine-Clásico
    Acceso público

  •  Cumpleaños

  •  Buscar
  • Búsqueda avanzada


  •  Últimos miembros

  •  Estilo del foro


  •  Estadísticas
  • Totales
    Mensajes totales 168024
    Temas totales 13226
    Anuncios totales: 72
    Fijos totales: 34
    Adjuntos totales: 0

    Temas por día: 7
    Mensajes por día: 93
    Usuarios por día: 3
    Temas por usuario: 3
    Mensajes por usuario: 32
    Mensajes por tema: 13

    Usuarios totales 5273
    Nuestro Miembro más reciente es orbtwin

  •  Enlace con nosotros
  • Por favor, siéntase libre de enlazar a . Utilice el siguiente código HTML:



Imagen
Bunker
Cinefórum-Clásico es un foro de cine que utiliza las redes KAD (eMule)

Bienvenidos

Ver último mensaje The Tunnel (Maurice Elvey, 1935) WEB-DL VO (SE)


The Tunnel (1935)
ImagenImagen

Título original
The Tunnel
Año
1935
Duración
94 min.
País
Reino Unido
Director
Maurice Elvey
Guion
Clemence Dane, Bernhard Kellermann, L. Du Garde Peach, Curt Siodmak
Música
Hubert Bath
Fotografía
Günter Krampf
Reparto
Richard Dix, Leslie Banks, Madge Evans, Helen Vinson, C. Aubrey Smith, Basil Sydney, George Arliss, Walter Huston, Jimmy Hanley, Hilda Trevelyan
Productora
Gaumont British Picture Corporation
Género
Ciencia ficción. Drama
Sinopsis
Una de las pocas películas británicas de ciencia ficción de los años 30. El objetivo es una titánica empresa, un tunel submarino que cruce el Océano Atlántico y conecte Gran Bretaña con Estados Unidos. Diversas erupciones y desastres naturales amenazan con convertir la obra en un gran fracaso. (FILMAFFINITY)

CAPTURAS:
ImagenImagen
ImagenImagen
Imagen

DATOS TECNICOS:
Code: Seleccionar todo
General
Unique ID                      : 234441274030494752115224917130872050506 (0xB05FBF3A7220DE4EB459F024DF73534A)
Complete name                  : The Tunnel (Maurice Elvey, 1935) 720p.mkv
Format                         : Matroska
Format version                 : Version 4 / Version 2
File size                      : 1.63 GiB
Duration                       : 1 h 33 min
Overall bit rate               : 2 508 kb/s
Encoded date                   : UTC 2017-08-14 13:44:56
Writing application            : mkvmerge v14.0.0 ('Flow') 64bit
Writing library                : libebml v1.3.4 + libmatroska v1.4.5

Video
ID                             : 1
Format                         : AVC
Format/Info                    : Advanced Video Codec
Format profile                 : Baseline@L3.1
Format settings, CABAC         : No
Format settings, RefFrames     : 3 frames
Codec ID                       : V_MPEG4/ISO/AVC
Duration                       : 1 h 33 min
Bit rate                       : 2 400 kb/s
Width                          : 1 280 pixels
Height                         : 720 pixels
Display aspect ratio           : 16:9
Frame rate mode                : Variable
Frame rate                     : 24.000 FPS
Color space                    : YUV
Chroma subsampling             : 4:2:0
Bit depth                      : 8 bits
Scan type                      : Progressive
Bits/(Pixel*Frame)             : 0.109
Stream size                    : 1.54 GiB (95%)
Writing library                : x264 core 136 r63M 8fcf9de
Encoding settings              : cabac=0 / ref=3 / deblock=1:0:0 / analyse=0x1:0x111 / me=hex / subme=7 / psy=1 / psy_rd=1.00:0.00 / mixed_ref=1 / me_range=16 / chroma_me=1 / trellis=1 / 8x8dct=0 / cqm=0 / deadzone=21,11 / fast_pskip=1 / chroma_qp_offset=-2 / threads=24 / lookahead_threads=4 / sliced_threads=0 / nr=0 / decimate=1 / interlaced=0 / bluray_compat=0 / constrained_intra=0 / bframes=0 / weightp=0 / keyint=120 / keyint_min=12 / scenecut=0 / intra_refresh=0 / rc_lookahead=40 / rc=cbr / mbtree=1 / bitrate=2400 / ratetol=1.0 / qcomp=0.60 / qpmin=0 / qpmax=69 / qpstep=4 / vbv_maxrate=2400 / vbv_bufsize=4800 / nal_hrd=none / ip_ratio=1.40 / aq=1:1.00
Language                       : English
Default                        : Yes
Forced                         : No

Audio
ID                             : 2
Format                         : AAC
Format/Info                    : Advanced Audio Codec
Format profile                 : LC
Codec ID                       : A_AAC
Duration                       : 1 h 33 min
Bit rate                       : 128 kb/s
Channel(s)                     : 2 channels
Channel positions              : Front: L R
Sampling rate                  : 44.1 kHz
Frame rate                     : 43.066 FPS (1024 SPF)
Compression mode               : Lossy
Stream size                    : 85.0 MiB (5%)
Default                        : Yes
Forced                         : No



ed2k://|file|The%20Tunnel%20(Maurice%20Elvey,%201935)%20720p.mkv|1749501186|880BA161BACE92A223436E0E145EBC56|h=WYBY6EF4QB2TIXDELHRH3FIIICTXYVMS|/
Subtitulos NO sincronizados: https://www.opensubtitles.org/es/subtit ... -tunnel-es

Vistas: 111  •  Comentarios: 3  •  Escribir comentario [ Atras ]

  • ¿Quién está conectado?
  • Hay 11 Usuarios identificados :: 6 registrados, 0 ocultos y 5 invitados (basados en usuarios activos en los últimos 5 minutos)
    La mayor cantidad de usuarios identificados fue 91 el 25 Feb 2017, 16:04

    Usuarios registrados: Bing [Bot], jorobado7, leonidas, lynchmob, Moloko, runciter





  •  Cinefórum-Clásico recomienda

  •  Cinefórum-Clásico recomienda

  •  Cinefórum-Clásico recomienda
  • Imagen

    Imagen

    Imagen

    Imagen

    Imagen

    Revistas de Cine por Franxesco
    (clic en cada imagen)