•  Ci-Cl Archivo
  • Imagen

    Archivo Cine-Clásico
    Acceso público

  •  Cumpleaños

  •  Buscar
  • Búsqueda avanzada


  •  Últimos miembros

  •  Estilo del foro


  •  Estadísticas
  • Totales
    Mensajes totales 150820
    Temas totales 12194
    Anuncios totales: 72
    Fijos totales: 24
    Adjuntos totales: 0

    Temas por día: 8
    Mensajes por día: 95
    Usuarios por día: 3
    Temas por usuario: 2
    Mensajes por usuario: 29
    Mensajes por tema: 12

    Usuarios totales 5193
    Nuestro Miembro más reciente es elaguainmovil

  •  Enlace con nosotros
  • Por favor, siéntase libre de enlazar a . Utilice el siguiente código HTML:



Imagen
mifune
¡Feliz Año Nuevo!
Cinefórum-Clásico es un foro de cine P2P, que utiliza las redes KAD (eMule)

Bienvenidos

Ver último mensaje Acciaio (Stefano Mordini, 2012) DVDRip VOSE


Imagen

IMDB: http://www.imdb.com/title/tt2042443/?ref_=fn_al_tt_1
FILMAFFINITY: http://www.filmaffinity.com/es/film166702.html


Director
Stefano Mordini

Guión
Giulia Calenda, Stefano Mordini, Silvia Avallone (Novela: Silvia Avallone)

Música
Andrea Mariano

Fotografía
Marco Onorato

Reparto
Matilde Giannini, Anna Bellezza, Michele Riondino, Vittoria Puccini, Francesco Turbanti, Luca Guastini, Monica Brachini, Massimo Popolizio

Productora
Palomar / Rai Cinema / Toscana Film Commission / Banca Nazionale del Lavoro / Ministero per i Beni e le Attività Culturali (MiBAC)
Género
Drama | Adolescencia. Amistad
Sinopsis
Es verano. En septiembre, cuando termine, Anna irá al instituto. Pasa el tiempo con su mejor amiga Francesca entre la playa y las fábricas abandonadas, o dando un paseo por el barrio, donde muchos otros jóvenes como ellas vagan sin meta, indolentes, resignados. En Piombino no hay muchas perspectivas de futuro más allá de trabajar en la acería, como hace Alessio, el hermano de Anna. Pero él cree en su trabajo y quiere quedarse en la ciudad.

-------------------------------------------------------------------------------------------
Desde Piombino, la ciudad del acero, la Isla de Elba parece un espejismo de felicidad. Desde Piombino, cualquier lugar parece ofrecer la posibilidad de una vida mejor. Así es para Anna, la jovencísima protagonista de la película de Stefano Mordini, "Acciaio" (lit.: “Acero”), un retrato de una vida dura, desoladora, común a muchas provincias industriales donde reina la monotonía, donde no hay nada bonito.

La historia de Acciaio, basada en la novela homónima de Silvia Avallone, se mueve por impulsos. El de escapar, el de quedarse e incluso el de volver, como Elena (Vittoria Puccini), que ha intentado irse, pero no ha encontrado nada mejor. Para los más débiles, no faltan los peligros. A sus espaldas tienen el fracaso de la generación de sus padres, un modelo que los jóvenes protagonistas de la película quieren evitar a toda costa.

“Del libro de Avallone me interesa la relación que estas personas tienen con el trabajo”, explica Mordini, “el odio y el amor que sienten hacia estas fábricas, aunque también la descripción de una época con tanto potencial como la adolescencia”. La fábrica es omnipresente. Se ve desde lejos, en el horizonte, con sus torres humeantes día y noche. Se entra en ella, llena de polvo, ruido y fuego. Michele Riondino ha ido varias veces a la fábrica de acero de Piombino, ha pasado tiempo con los trabajadores y ha comido en la cantina: “Es un trabajo hecho de silencio y espera. En un alto horno, el aburrimiento puede ser mortal”.

La lengua de mar que separa Piombino de la Isla de Elba es recorrido constantemente por cruceros, llenos de familias felices. Los jóvenes de Piombino los observan, melancólicos, a lo lejos. El billete para la felicidad cuesta demasiado. Quizás la clase trabajadora vaya al paraíso, pero de vacaciones seguro que no. (cineuropa.org)
-------------------------------------------------------------------------------------------

Code: Seleccionar todo
General
Complete name               : Acciaio.2012.iTALiAN.BRRip.XviD.BLUWORLD.avi
Format                      : AVI
Format/Info                 : Audio Video Interleave
File size                   : 1.37 GiB
Duration                    : 1 h 38 min
Overall bit rate            : 1 996 kb/s
Writing application         : VirtualDubMod 1.5.4.1 (build 2178/release)
Writing library             : VirtualDubMod build 2178/release

Video
ID                          : 0
Format                      : MPEG-4 Visual
Format profile              : Advanced Simple@L5
Format settings, BVOP       : No
Format settings, QPel       : No
Format settings, GMC        : No warppoints
Format settings, Matrix     : Custom
Codec ID                    : XVID
Codec ID/Hint               : XviD
Duration                    : 1 h 38 min
Bit rate                    : 1 350 kb/s
Width                       : 704 pixels
Height                      : 384 pixels
Display aspect ratio        : 1.85:1
Frame rate                  : 24.000 FPS
Color space                 : YUV
Chroma subsampling          : 4:2:0
Bit depth                   : 8 bits
Scan type                   : Progressive
Compression mode            : Lossy
Bits/(Pixel*Frame)          : 0.208
Stream size                 : 947 MiB (68%)
Writing library             : XviD 64

Audio
ID                          : 1
Format                      : AC-3
Format/Info                 : Audio Coding 3
Mode extension              : CM (complete main)
Format settings, Endianness : Big
Codec ID                    : 2000
Duration                    : 1 h 37 min
Bit rate mode               : Constant
Bit rate                    : 640 kb/s
Channel(s)                  : 6 channels
Channel positions           : Front: L C R, Side: L R, LFE
Sampling rate               : 48.0 kHz
Frame rate                  : 31.250 FPS (1536 spf)
Bit depth                   : 16 bits
Compression mode            : Lossy
Stream size                 : 448 MiB (32%)
Alignment                   : Split accross interleaves
Interleave, duration        : 96  ms (2.31 video frames)
Interleave, preload duratio : 96  ms


Imagen
Imagen
Imagen
Imagen


ed2k://|file|Acciaio.2012.iTALiAN.BRRip.XviD.BLUWORLD.avi|1468391424|FBA76F4EEDF42136496198FD5206FAA0|/

Subtítulos en español:
http://www.subdivx.com/X6XMzk4Njk5X-acc ... steel.html

:hi:

Vistas: 144  •  Comentarios: 4  •  Escribir comentario [ Atras ]

  • ¿Quién está conectado?
  • Hay 8 Usuarios identificados :: 3 registrados, 0 ocultos y 5 invitados (basados en usuarios activos en los últimos 5 minutos)
    La mayor cantidad de usuarios identificados fue 75 el 18 May 2016, 22:23

    Usuarios registrados: jomime, RickBrice, Strait





  •  Cinefórum-Clásico recomienda

  •  Cinefórum-Clásico recomienda

  •  Cinefórum-Clásico recomienda
  • Imagen

    Imagen

    Imagen

    Imagen

    Imagen

    Revistas de Cine por Franxesco
    (clic en cada imagen)