•  Ci-Cl Archivo
  • Imagen

    Archivo Cine-Clásico
    Acceso público

  •  Cumpleaños

  •  Buscar
  • Búsqueda avanzada


  •  Últimos miembros

  •  Estilo del foro


  •  Estadísticas
  • Totales
    Mensajes totales 170428
    Temas totales 13380
    Anuncios totales: 72
    Fijos totales: 34
    Adjuntos totales: 0

    Temas por día: 7
    Mensajes por día: 93
    Usuarios por día: 3
    Temas por usuario: 3
    Mensajes por usuario: 32
    Mensajes por tema: 13

    Usuarios totales 5287
    Nuestro Miembro más reciente es juliomario123

  •  Enlace con nosotros
  • Por favor, siéntase libre de enlazar a . Utilice el siguiente código HTML:



Imagen
Sims
Cinefórum-Clásico es un foro de cine que utiliza las redes KAD (eMule)

Bienvenidos

Ver último mensaje Crime of Passion (Gerd Oswald, 1957) BDRip 1080p Dual SE


Previamente en esta web




Delito de pasión (Crimen pasional) (Crime of Passion) (Gerd Oswald, 1957)

Imagen
Imagen
Imagen
Filmaffinity | IMDb

Guion: Jo Eisinger
Música: Paul Dunlap
Fotografía: Joseph LaShelle (B&W)
Reparto: Barbara Stanwyck, Sterling Hayden, Raymond Burr, Fay Wray, Virginia Grey, Stuart Whitman, Jay Adler, Royal Dano, Robert Griffin, Dennis Cross, Malcolm Atterbury
Productora: United Artists
Género: Cine negro | Drama | Crimen
Sinopsis: Kathy (Barbara Stanwyck) es una ambiciosa ex-periodista que está casada con un policía (Sterling Hayden). Con el fin de lograr un ascenso para su marido, no duda en coquetear peligrosamente con el jefe de éste (Raymond Burr). Atrapada en una difícil situación que ella misma ha creado, acabará cometiendo un crimen. Lo peor es que su marido será el encargado de investigarlo. (FILMAFFINITY)



Gracias a quienes compartieron el BD 1080p.
Spoiler:
Dadas las (extrañas) circunstancias en las que actualmente parecemos movernos en el mundo p2p (en especial, en lo relativo a los trackers privados), de aquí en adelante haré "agradecimientos genéricos" a quienes compartieron la fuente original y no enlazaré a dicha fuente original en mis posts.
Disculpen las molestias


Detalles de la edición


Ripeo con esta configuración:
Code: Seleccionar todo
"C:\x264.exe" --preset veryslow --tune film --crf 18.8 --no-chroma-me --level 4.1 --output "C:\mi_ripeo.mkv" "C:\mi_script.avs"


Imagen
Imagen
Imagen
Imagen
Imagen
Imagen
Imagen
Imagen
Imagen
Imagen


Code: Seleccionar todo
Format : Matroska
Format version : Version 4 / Version 2
File size : 7.53 GiB
Duration : 1 h 25 min
Overall bit rate : 12.6 Mb/s
Encoded date : UTC 2017-09-20 18:18:12
Writing application : mkvmerge v15.0.0 ('Duel with the Devil') 64-bit
Writing library : libebml v1.3.5 + libmatroska v1.4.5

Video
ID : 1
Format : AVC
Format/Info : Advanced Video Codec
Format profile : High@L4.1
Format settings, CABAC : Yes
Format settings, ReFrames : 4 frames
Codec ID : V_MPEG4/ISO/AVC
Duration : 1 h 25 min
Bit rate : 12.3 Mb/s
Width : 1 920 pixels
Height : 1 036 pixels
Display aspect ratio : 1.85:1
Frame rate mode : Constant
Frame rate : 23.976 (24000/1001) FPS
Color space : YUV
Chroma subsampling : 4:2:0
Bit depth : 8 bits
Scan type : Progressive
Bits/(Pixel*Frame) : 0.258
Stream size : 7.37 GiB (98%)
Writing library : x264 core 152 r2851 ba24899
Encoding settings : cabac=1 / ref=4 / deblock=1:-1:-1 / analyse=0x3:0x133 / me=umh / subme=10 / psy=1 / psy_rd=1.00:0.15 / mixed_ref=1 / me_range=24 / chroma_me=0 / trellis=2 / 8x8dct=1 / cqm=0 / deadzone=21,11 / fast_pskip=1 / chroma_qp_offset=-3 / threads=6 / lookahead_threads=1 / sliced_threads=0 / nr=0 / decimate=1 / interlaced=0 / bluray_compat=0 / constrained_intra=0 / bframes=8 / b_pyramid=2 / b_adapt=2 / b_bias=0 / direct=3 / weightb=1 / open_gop=0 / weightp=2 / keyint=250 / keyint_min=23 / scenecut=40 / intra_refresh=0 / rc_lookahead=60 / rc=crf / mbtree=1 / crf=18.8 / qcomp=0.60 / qpmin=0 / qpmax=69 / qpstep=4 / ip_ratio=1.40 / aq=1:1.00
Language : English
Default : Yes
Forced : No

Audio #1
ID : 2
Format : AAC
Format/Info : Advanced Audio Codec
Format profile : LC
Codec ID : A_AAC
Duration : 1 h 25 min
Bit rate : 113 kb/s
Channel(s) : 2 channels
Channel positions : Front: L R
Sampling rate : 48.0 kHz
Frame rate : 46.875 FPS (1024 spf)
Compression mode : Lossy
Stream size : 69.6 MiB (1%)
Language : English
Writing library : qaac 2.64, CoreAudioToolbox 7.10.9.0
Encoding settings : qaac -V 127 --ignorelength --adts --no-delay -o
VBR min./avg./max. : 4 / 116 / 291 Kb/s.
Duration.......... : 5144.875 sec., (1h. 25m. 44.875s.)
Default : Yes
Forced : No

Audio #2
ID : 3
Format : AAC
Format/Info : Advanced Audio Codec
Format profile : LC
Codec ID : A_AAC
Duration : 1 h 25 min
Bit rate : 132 kb/s
Channel(s) : 2 channels
Channel positions : Front: L R
Sampling rate : 48.0 kHz
Frame rate : 46.875 FPS (1024 spf)
Compression mode : Lossy
Stream size : 82.0 MiB (1%)
Title : Doblaje para TVE de 1990
Language : Spanish
Writing library : qaac 2.64, CoreAudioToolbox 7.10.9.0
Encoding settings : qaac -V 127 --ignorelength --adts --no-delay -o
VBR min./avg./max. : 6 / 136 / 211 Kb/s.
Duration.......... : 5144.853 sec., (1h. 25m. 44.853s.)
Default : No
Forced : No

Text #1
ID : 4
Format : UTF-8
Codec ID : S_TEXT/UTF8
Codec ID/Info : UTF-8 Plain Text
Duration : 1 h 25 min
Bit rate : 63 b/s
Count of elements : 1088
Stream size : 39.7 KiB (0%)
Language : Spanish
Default : Yes
Forced : No

Text #2
ID : 5
Format : UTF-8
Codec ID : S_TEXT/UTF8
Codec ID/Info : UTF-8 Plain Text
Duration : 1 h 24 min
Bit rate : 70 b/s
Count of elements : 1027
Stream size : 43.7 KiB (0%)
Language : English
Default : No
Forced : No

Text #3
ID : 6
Format : VobSub
Muxing mode : zlib
Codec ID : S_VOBSUB
Codec ID/Info : Picture based subtitle format used on DVDs
Duration : 1 h 23 min
Bit rate : 11.2 kb/s
Count of elements : 1514
Stream size : 6.68 MiB (0%)
Title : English Vobsubs (H.I.)
Language : English
Default : No
Forced : No

Menu
00:00:00.000 : en:00:00:00.000
00:01:21.039 : en:00:01:21.039
00:03:46.810 : en:00:03:46.810
00:06:12.372 : en:00:06:12.372
00:10:53.611 : en:00:10:53.611
00:12:54.107 : en:00:12:54.107
00:14:16.439 : en:00:14:16.439
00:16:29.906 : en:00:16:29.906
00:21:42.510 : en:00:21:42.510
00:30:07.723 : en:00:30:07.723
00:35:14.904 : en:00:35:14.904
00:39:06.094 : en:00:39:06.094
00:42:32.467 : en:00:42:32.467
00:45:36.275 : en:00:45:36.275
00:54:06.410 : en:00:54:06.410
00:59:48.752 : en:00:59:48.752
01:05:14.911 : en:01:05:14.911
01:11:06.471 : en:01:11:06.471
01:17:51.542 : en:01:17:51.542
01:21:53.742 : en:01:21:53.742
01:25:20.949 : en:01:25:20.949





:arrow: BDRip Dual (V.O. - doblaje en castellano) 1080p, con subtítulos en español e inglés en el contenedor MKV (7.53 GBs)

:arrow: Subtítulos por separado
, por si alguien los necesita para... (60 KBs)

Los subtítulos en español son obra de Theycame2001, resincronizados para este ripeo.


Para la sincronización del doblaje he contado con la siempre magnífica labor de Santi(agoo), que, como siempre, me ha realizado los comentarios técnicos de rigor sobre el mismo:

La pista de doblaje contiene un doblaje para TVE de 1990, y la fuente utilizada es el dvdrip que circula por la mula de Merxe, readaptado para este vídeo. El doblaje no es muy allá, aunque las voces de Mª Dolores Gispert y Camilo García en la pareja protagonista lo apañan bastante.




:arrow: Cómo buscar archivos en emule. Necesario para buscar lo anterior...





----------------------------------------------------


Imagen Imagen

Última versión del codec x264 (inglés) | Web en español sobre el codec x264
Manual de ripeo con x264 en línea de comandos (español) | Parámetros de codificación (inglés)
Contenedor Matroska (español) | Matroska en wikipedia (español): software de PC compatible, etc.
MKVToolnix, herramientas de edición para matroska (inglés) | Añadir cadenas de audio o subtítulos con MKVToolnix (español)
MKVExtractGui | Manual de extracción de cadenas de audio/vídeo/subtítulos en MKV (español)
Cómo crear BDRips MKV/x264 1080p o 1080p (español) | Guía avanzada para crear DVDRips MKV/x264 paso a paso (inglés)

Vistas: 192  •  Comentarios: 7  •  Escribir comentario [ Atras ]

  • ¿Quién está conectado?
  • Hay 11 Usuarios identificados :: 1 registrado, 0 ocultos y 10 invitados (basados en usuarios activos en los últimos 5 minutos)
    La mayor cantidad de usuarios identificados fue 91 el 25 Feb 2017, 16:04

    Usuarios registrados: Bing [Bot]





  •  Cinefórum-Clásico recomienda

  •  Cinefórum-Clásico recomienda

  •  Cinefórum-Clásico recomienda
  • Imagen

    Imagen

    Imagen

    Imagen

    Imagen

    Revistas de Cine por Franxesco
    (clic en cada imagen)