•  Ci-Cl Archivo
  • Imagen

    Archivo Cine-Clásico
    Acceso público

  •  Cumpleaños

  •  Buscar
  • Búsqueda avanzada


  •  Últimos miembros

  •  Estilo del foro


  •  Estadísticas
  • Totales
    Mensajes totales 168024
    Temas totales 13226
    Anuncios totales: 72
    Fijos totales: 34
    Adjuntos totales: 0

    Temas por día: 7
    Mensajes por día: 93
    Usuarios por día: 3
    Temas por usuario: 3
    Mensajes por usuario: 32
    Mensajes por tema: 13

    Usuarios totales 5273
    Nuestro Miembro más reciente es orbtwin

  •  Enlace con nosotros
  • Por favor, siéntase libre de enlazar a . Utilice el siguiente código HTML:



Imagen
Bunker
Cinefórum-Clásico es un foro de cine que utiliza las redes KAD (eMule)

Bienvenidos

Ver último mensaje Union City (Marcus Reichert, 1980) DVDRip Dual


rarelust.com and his hidden gems presents...

Imagen

Union City (1980)
Union City

País: EE.UU.
Duración: 87 minutos
Color

Director: c
Guión: Cornell Woolrich, Marcus Reichert
Productor: Graham Belin, Monty Montgomery, Ron Mutz, Fred C. Caruso, Robert Erie
Director de fotografía: Edward Lachman
Música: Chris Stein

Más información

Reparto: Sam McMurray, Dennis Lipscomb, Terry Walsh, Cynthia Crisp, Taylor Mead, Charles Rydell, Deborah Harry, Sally MacLeod, Irina Maleeva, Terina Lewis, Everett McGill, Wolfgang Zilzer, Arthur McFarland, CCH Pounder, Asha Robinson, Todd Rolle, Rachel Raymon, Rene Raymon, Granada Stephens, Rahsaan Curry, Isha Gaddy, Tony Azito, Pat Benatar, Marie McGee, Katya Colman, Richard McGonagle, Bobby Fields, Mary Blake, Anthony Luizzi, Lenore Luizzi, Kathy Wahlin, Evan Mirand, Marcus Reichert

Sinopsis y comentarios: Guilty paranoia in a gritty 1950's industrial town. An accountant, living a repressed life, becomes so obsessed with the person who is stealing his morning milk that he commits an act of irrational violence. His beautiful wife, meanwhile, is making plans of her own.

Capturas:

Imagen


Datos técnicos:
Spoiler:
General
Name : Union City (Marcus Reichert, 1980) DVDRip Eng&Spanish.mkv
Format : Matroska
Format version : Version 4 / Version 2
File size : 1.22 GiB
Duration : 1h 22mn
Overall bit rate : 2 131 Kbps
Encoded date : UTC 2017-08-15 09:34:48
Writing application : mkvmerge v11.0.0 ('Alive') 64bit
Writing library : libebml v1.3.4 + libmatroska v1.4.5
DURATION : 01:22:02.064000000
NUMBER_OF_FRAMES : 205086
NUMBER_OF_BYTES : 137817792
_STATISTICS_WRITING_APP : mkvmerge v11.0.0 ('Alive') 64bit
_STATISTICS_WRITING_DATE_UTC : 2017-08-15 09:34:48
_STATISTICS_TAGS : BPS DURATION NUMBER_OF_FRAMES NUMBER_OF_BYTES

Video
ID : 2
Format : AVC
Format/Info : Advanced Video Codec
Format profile : High@L4.1
Format settings, CABAC : Yes
Format settings, ReFrames : 16 frames
Codec ID : V_MPEG4/ISO/AVC
Duration : 1h 22mn
Bit rate : 1 713 Kbps
Width : 694 pixels
Height : 550 pixels
Display aspect ratio : 16:9
Frame rate mode : Constant
Frame rate : 25.000 fps
Color space : YUV
Chroma subsampling : 4:2:0
Bit depth : 8 bits
Scan type : Progressive
Bits/(Pixel*Frame) : 0.180
Stream size : 982 MiB (78%)
Writing library : x264 core 120 r2164 da19765
Encoding settings : cabac=1 / ref=16 / deblock=1:-2:-1 / analyse=0x3:0x133 / me=umh / subme=10 / psy=1 / psy_rd=1.20:0.15 / mixed_ref=1 / me_range=24 / chroma_me=1 / trellis=2 / 8x8dct=1 / cqm=0 / deadzone=21,11 / fast_pskip=0 / chroma_qp_offset=-3 / threads=6 / sliced_threads=0 / nr=0 / decimate=0 / interlaced=0 / bluray_compat=0 / constrained_intra=0 / bframes=8 / b_pyramid=2 / b_adapt=2 / b_bias=0 / direct=3 / weightb=1 / open_gop=0 / weightp=2 / keyint=250 / keyint_min=25 / scenecut=40 / intra_refresh=0 / rc_lookahead=60 / rc=2pass / mbtree=1 / bitrate=1713 / ratetol=1.0 / qcomp=0.60 / qpmin=0 / qpmax=69 / qpstep=4 / cplxblur=20.0 / qblur=0.5 / ip_ratio=1.40 / aq=1:0.80
Language : English
Default : Yes
Forced : No

Audio #1
ID : 1
Format : AC-3
Format/Info : Audio Coding 3
Mode extension : CM (complete main)
Format settings, Endianness : Big
Codec ID : A_AC3
Duration : 1h 22mn
Bit rate mode : Constant
Bit rate : 192 Kbps
Channel(s) : 2 channels
Channel positions : Front: L R
Sampling rate : 48.0 KHz
Compression mode : Lossy
Stream size : 113 MiB (9%)
Default : Yes
Forced : No
DURATION : 01:22:02.000000000
NUMBER_OF_FRAMES : 123016
NUMBER_OF_BYTES : 1054022497
_STATISTICS_WRITING_APP : mkvmerge v11.0.0 ('Alive') 64bit
_STATISTICS_WRITING_DATE_UTC : 2017-08-15 09:34:48
_STATISTICS_TAGS : BPS DURATION NUMBER_OF_FRAMES NUMBER_OF_BYTES

Audio #2
ID : 3
Format : MPEG Audio
Format version : Version 1
Format profile : Layer 3
Mode : Joint stereo
Codec ID : A_MPEG/L3
Codec ID/Hint : MP3
Duration : 1h 22mn
Bit rate mode : Constant
Bit rate : 224 Kbps
Channel(s) : 2 channels
Sampling rate : 48.0 KHz
Compression mode : Lossy
Stream size : 131 MiB (11%)
Language : Spanish
Default : No
Forced : No



Adaptación de un relato corto del especialista noir writer Cornell Woolrich (a.k.a William Irish).

He mixeado la copia inglesa encontrada en Rarelust con el dvdrip castellano aportado por antpmzgmz en filibusteros a quien doy las gracias. Enjoy. :wink:


Imagen


Elinks:

ed2k://|file|Union%20City%20(Marcus%20Reichert,%201980)%20DVDRip%20Eng&Spanish.mkv|1311249750|3B60F5294CCAB15AEBB5FDD54ACCD69F|h=4BLEQSPPOVOMLBKIPD76ME6PRMQOQU3P|/

Vistas: 130  •  Comentarios: 4  •  Escribir comentario [ Atras ]

  • ¿Quién está conectado?
  • Hay 10 Usuarios identificados :: 6 registrados, 0 ocultos y 4 invitados (basados en usuarios activos en los últimos 5 minutos)
    La mayor cantidad de usuarios identificados fue 91 el 25 Feb 2017, 16:04

    Usuarios registrados: Bing [Bot], Danyyyy, jorobado7, leonidas, Moloko, runciter





  •  Cinefórum-Clásico recomienda

  •  Cinefórum-Clásico recomienda

  •  Cinefórum-Clásico recomienda
  • Imagen

    Imagen

    Imagen

    Imagen

    Imagen

    Revistas de Cine por Franxesco
    (clic en cada imagen)