•  Ci-Cl Archivo
  • Imagen

    Archivo Cine-Clásico
    Acceso público

  •  Cumpleaños

  •  Buscar
  • Búsqueda avanzada


  •  Últimos miembros

  •  Estilo del foro


  •  Estadísticas
  • Totales
    Mensajes totales 172096
    Temas totales 13476
    Anuncios totales: 72
    Fijos totales: 34
    Adjuntos totales: 0

    Temas por día: 7
    Mensajes por día: 92
    Usuarios por día: 3
    Temas por usuario: 3
    Mensajes por usuario: 33
    Mensajes por tema: 13

    Usuarios totales 5293
    Nuestro Miembro más reciente es upthecine

  •  Enlace con nosotros
  • Por favor, siéntase libre de enlazar a . Utilice el siguiente código HTML:



Imagen
Bunker
Cinefórum-Clásico es un foro de cine que utiliza las redes KAD (eMule)

Bienvenidos

Ver último mensaje Le lion des mogols (Jean Epstein, 1924) DVDRip VOSE


LE LION DES MOGOLS
(1924)


Imagen

IMDb


Director
Jean Epstein

Guión
Ivan Mosjoukine
Jean Epstein

Intérpretes
Ivan Mosjoukine
Nathalie Lissenko
Camille Bardou
Alexiane
François Viguier
François Zellas
Henry Prestat


En el reino de los mogoles, el príncipe Roundghito-Sing, un joven oficial del palacio, se enamora de Zemgali, una princesa cautiva hecha prisionera y codiciada por el Gran Khan. Huyendo del país, se refugia en París y su buena presencia le permite ser contratado como actor en una compañía de cine francesa. El problema es que Anna, la estrella de la película, se siente atraída por él, lo que desagrada al banquero Morel, el productor y amante de Anna. (FILMAFFINITY)


Copia restaurada con virados y subtítulos aportados por Eddie Constanti.


Imagen


Imagen


Datos técnicos:
Code: Seleccionar todo
General
Complete name               : Le lion des mogols (Jean Epstein, 1924) DVDrip.mp4
Format                      : MPEG-4
Format profile              : Base Media
Codec ID                    : isom (isom)
File size                   : 1.60 GiB
Duration                    : 1 h 41 min
Overall bit rate mode       : Variable
Overall bit rate            : 2 252 kb/s
Encoded date                : UTC 2017-10-13 13:32:23
Tagged date                 : UTC 2017-10-13 13:32:23

Video
ID                          : 1
Format                      : AVC
Format/Info                 : Advanced Video Codec
Format profile              : Main@L4
Format settings, CABAC      : Yes
Format settings, RefFrames  : 4 frames
Codec ID                    : avc1
Codec ID/Info               : Advanced Video Coding
Duration                    : 1 h 41 min
Source duration             : 1 h 41 min
Bit rate                    : 2 090 kb/s
Maximum bit rate            : 6 973 kb/s
Width                       : 718 pixels
Original width              : 716 pixels
Height                      : 576 pixels
Display aspect ratio        : 4:3
Original display aspect rat : 4:3
Frame rate mode             : Variable
Frame rate                  : 25.000 FPS
Minimum frame rate          : 12.500 FPS
Maximum frame rate          : 25.000 FPS
Color space                 : YUV
Chroma subsampling          : 4:2:0
Bit depth                   : 8 bits
Scan type                   : Progressive
Bits/(Pixel*Frame)          : 0.202
Stream size                 : 1.49 GiB (93%)
Source stream size          : 1.49 GiB (93%)
Writing library             : x264 core 142 r2479 dd79a61
Encoding settings           : cabac=1 / ref=1 / deblock=1:0:0 / analyse=0x1:0x111 / me=hex / subme=2 / psy=1 / psy_rd=1.00:0.00 / mixed_ref=0 / me_range=16 / chroma_me=1 / trellis=0 / 8x8dct=0 / cqm=0 / deadzone=21,11 / fast_pskip=1 / chroma_qp_offset=0 / threads=6 / lookahead_threads=2 / sliced_threads=0 / nr=0 / decimate=1 / interlaced=0 / bluray_compat=0 / constrained_intra=0 / bframes=3 / b_pyramid=2 / b_adapt=1 / b_bias=0 / direct=1 / weightb=1 / open_gop=0 / weightp=1 / keyint=250 / keyint_min=25 / scenecut=40 / intra_refresh=0 / rc_lookahead=10 / rc=crf / mbtree=1 / crf=20.0 / qcomp=0.60 / qpmin=0 / qpmax=69 / qpstep=4 / vbv_maxrate=20000 / vbv_bufsize=25000 / crf_max=0.0 / nal_hrd=none / filler=0 / ip_ratio=1.40 / aq=1:1.00
Tagged date                 : UTC 2017-10-13 13:35:29
Color range                 : Limited
Color primaries             : BT.601 PAL
Transfer characteristics    : BT.709
Matrix coefficients         : BT.601

Audio
ID                          : 2
Format                      : AAC
Format/Info                 : Advanced Audio Codec
Format profile              : LC
Codec ID                    : 40
Duration                    : 1 h 41 min
Source duration             : 1 h 41 min
Bit rate mode               : Variable
Bit rate                    : 160 kb/s
Maximum bit rate            : 173 kb/s
Channel(s)                  : 2 channels
Channel positions           : Front: L R
Sampling rate               : 48.0 kHz
Frame rate                  : 46.875 FPS (1024 SPF)
Compression mode            : Lossy
Stream size                 : 115 MiB (7%)
Source stream size          : 115 MiB (7%)
Title                       : Stereo
Default                     : Yes
Alternate group             : 1
Tagged date                 : UTC 2017-10-13 13:35:29



ImagenImagenImagenImagen
Imagen


ed2k://|file|Le%20lion%20des%20mogols%20(Jean%20Epstein,%201924)%20DVDrip.mp4|1721759067|AFA77ECE42A6987842683DC25796AFB8|h=VCAPZGPVW2WQ3D3BAXQWW6LNZOQJETFT|/

Subtítulos en español obra de Eddie Constanti:
http://www.subdivx.com/X6XNTE2MjQ2

Vistas: 191  •  Comentarios: 9  •  Escribir comentario [ Atras ]

  • ¿Quién está conectado?
  • Hay 11 Usuarios identificados :: 5 registrados, 0 ocultos y 6 invitados (basados en usuarios activos en los últimos 5 minutos)
    La mayor cantidad de usuarios identificados fue 91 el 25 Feb 2017, 16:04

    Usuarios registrados: chaltonheston, eulsus, jail, mifune, rrreeevvv





  •  Cinefórum-Clásico recomienda

  •  Cinefórum-Clásico recomienda

  •  Cinefórum-Clásico recomienda
  • Imagen

    Imagen

    Imagen

    Imagen

    Imagen

    Revistas de Cine por Franxesco
    (clic en cada imagen)