•  Ci-Cl Archivo
  • Imagen

    Archivo Cine-Clásico
    Acceso público

  •  Cumpleaños

  •  Buscar
  • Búsqueda avanzada


  •  Últimos miembros

  •  Estilo del foro


  •  Estadísticas
  • Totales
    Mensajes totales 166656
    Temas totales 13145
    Anuncios totales: 72
    Fijos totales: 34
    Adjuntos totales: 0

    Temas por día: 7
    Mensajes por día: 94
    Usuarios por día: 3
    Temas por usuario: 2
    Mensajes por usuario: 32
    Mensajes por tema: 13

    Usuarios totales 5268
    Nuestro Miembro más reciente es fcogil

  •  Enlace con nosotros
  • Por favor, siéntase libre de enlazar a . Utilice el siguiente código HTML:



Imagen
mifune
Cinefórum-Clásico es un foro de cine que utiliza las redes KAD (eMule)

Bienvenidos

¡Felices vacaciones!

Ver último mensaje El hombre del expreso de Oriente (Francisco de Borja Moro, 1962) SATRip VO


El hombre del expreso de Oriente
1961

Imagen

Imagen


DIRECTOR: Francisco de Borja Moro
PRODUCTORA: Films Fortunia
GUIÓN: Miguel Buñuel, Francisco de Borja Moro
MÚSICA: Luis de Pablo



ARGUMENTO Dos vagabundos llegan como todos los años a Madrid en Navidad para participar en la cabalgata de los Reyes Magos de una sociedad benéfica. Encarnan a Melchor y Gaspar y, como el anciano que daba vida a Baltasar ha muerto, tienen que buscar a alguien que le sustituya. El elegido es un pocero que trabaja en las alcantarillas. En la cabalgata, el nuevo Baltasar experimenta por primera vez la emoción de algo maravilloso, y promete que volverá al próximo año, creyendo que algún día verá la estrella de Oriente. (Enciclopedia del Cine Español) IMDB: http://www.imdb.com/title/tt0054987/



Reparto: Germán Cobos , Roberto Camardiel , Manolo Zarzo , Erasmo Pascual , Enrique Avila , Angelito Gómez , Maite Blasco , Margarita Lozano , Francisco Bernal , Luis Marín , Pilar Alonso Rey, Francisco Barriga, José Vicente Cerrudo, Patricia Chico, Mariano Ciudad, Consuelo Companys, Juan Cortés, Celia Foster, Dolores García Morales, Rosario García Ortega, Teresa Gisbert, Carmelita González, Sandalio Hernández, María Hevia, Luis Morris, Alfredo Muñiz, Enrique Navarro, María Pérez Palacios, Lorenzo Robledo, Pedro Rodríguez de Quevedo, Emilio Rodríguez, Carmen Sáez, Tina Sáinz, Benito Sánchez, Juan Sanz, Concha Saravia, Ena Sedeño, Calixto Sinarro, Alfredo Ulecia, Luis Uribarri Durán, Eugenio Vicente


Datos Técnicos:


Code: Seleccionar todo
General:

Complete name                    : 1962 El hombre del expreso de Oriente (Francisco de Borja Moro, 1962) SATRip VO by mifune-DCINE.mkv
Format                           : Matroska
Format version                   : Version 4 / Version 2
File size                        : 1.55 GiB
Duration                         : 1h 31mn
Overall bit rate                 : 2 423 Kbps
Encoded date                     : UTC 2017-06-25T17:22:24Z
Writing application              : mkvmerge v7.1.0 ('Good Love') 32bit built on Jul 27 2014 12:59:18
Writing library                  : Lavf54.63.104

Video
ID                               : 1
Format                           : AVC
Format/Info                      : Advanced Video Codec
Format profile                   : High@L4.1
Format settings, CABAC           : Yes
Format settings, ReFrames        : 4 frames
Codec ID                         : V_MPEG4/ISO/AVC
Duration                         : 1h 31mn
Bit rate                         : 2 183 Kbps
Width                            : 716 pixels
Height                           : 576 pixels
Display aspect ratio             : 16:9
Frame rate mode                  : Variable
Frame rate                       : 25.000 fps
Color space                      : YUV
Chroma subsampling               : 4:2:0
Bit depth                        : 8 bits
Scan type                        : Progressive
Bits/(Pixel*Frame)               : 0.212
Stream size                      : 1.40 GiB (90%)
Writing library                  : x264 core 142 r2479 dd79a61
Encoding settings                : cabac=1 / ref=3 / deblock=1:-1:-1 / analyse=0x3:0x113 / me=hex / subme=7 / psy=1 / psy_rd=1.00:0.15 / mixed_ref=1 / me_range=16 / chroma_me=1 / trellis=1 / 8x8dct=1 / cqm=0 / deadzone=21,11 / fast_pskip=1 / chroma_qp_offset=-3 / threads=1 / lookahead_threads=1 / sliced_threads=0 / nr=0 / decimate=1 / interlaced=0 / bluray_compat=0 / constrained_intra=0 / bframes=3 / b_pyramid=2 / b_adapt=1 / b_bias=0 / direct=1 / weightb=1 / open_gop=0 / weightp=2 / keyint=250 / keyint_min=25 / scenecut=40 / intra_refresh=0 / rc_lookahead=40 / rc=crf / mbtree=1 / crf=18.0 / qcomp=0.60 / qpmin=0 / qpmax=69 / qpstep=4 / vbv_maxrate=62500 / vbv_bufsize=78125 / crf_max=0.0 / nal_hrd=none / filler=0 / ip_ratio=1.40 / aq=1:1.00
Default                          : Yes
Forced                           : No
DURATION                         : 01:31:41.040000000
NUMBER_OF_FRAMES                 : 137526
NUMBER_OF_BYTES                  : 1532712493
_STATISTICS_WRITING_APP          : mkvmerge v7.1.0 ('Good Love') 32bit built on Jul 27 2014 12:59:18
_STATISTICS_WRITING_DATE_UTC     : 2017-06-26 05:32:24
_STATISTICS_TAGS                 : BPS DURATION NUMBER_OF_FRAMES NUMBER_OF_BYTES
Color primaries                  : BT.470-6 System B, BT.470-6 System G, BT.601-6 625, BT.1358 625, BT.1700 625 PAL, BT.1700 625 SECAM
Transfer characteristics         : BT.709-5, BT.1361
Matrix coefficients              : BT.601-6 525, BT.1358 525, BT.1700 NTSC, SMPTE 170M

Audio
ID                               : 2
Format                           : MPEG Audio
Format version                   : Version 1
Format profile                   : Layer 2
Codec ID                         : A_MPEG/L2
Codec ID/Hint                    : MP2
Duration                         : 1h 31mn
Bit rate mode                    : Constant
Bit rate                         : 192 Kbps
Channel(s)                       : 2 channels
Sampling rate                    : 48.0 KHz
Compression mode                 : Lossy
Delay relative to video          : -78ms
Stream size                      : 126 MiB (8%)
Language                         : Spanish
Default                          : Yes
Forced                           : No
DURATION                         : 01:31:41.160000000
NUMBER_OF_FRAMES                 : 229215
NUMBER_OF_BYTES                  : 132027840
_STATISTICS_WRITING_APP          : mkvmerge v7.1.0 ('Good Love') 32bit built on Jul 27 2014 12:59:18
_STATISTICS_WRITING_DATE_UTC     : 2017-06-26 05:32:24
_STATISTICS_TAGS                 : BPS DURATION NUMBER_OF_FRAMES NUMBER_OF_BYTES







Capturas:

Imagen
Imagen
Imagen
Imagen
Imagen

Enlace: (Mi ripeo sobre la grabación en .ts de mifune)

ed2k://|file|1962%20El%20hombre%20del%20expreso%20de%20Oriente%20(Francisco%20de%20Borja%20Moro,%201962)%20SATRip%20VO%20by%20mifune-DCINE.mkv|1666020887|637341C02EAB2851C5D367C7BA2EB7E9|h=BFNUKVBLJS4JDHONTOPPV56UDUV5P7WT|/

Vistas: 150  •  Comentarios: 4  •  Escribir comentario [ Atras ]

  • ¿Quién está conectado?
  • Hay 8 Usuarios identificados :: 2 registrados, 1 oculto y 5 invitados (basados en usuarios activos en los últimos 5 minutos)
    La mayor cantidad de usuarios identificados fue 91 el 25 Feb 2017, 16:04

    Usuarios registrados: Bigford, PREACHER





  •  Cinefórum-Clásico recomienda

  •  Cinefórum-Clásico recomienda

  •  Cinefórum-Clásico recomienda
  • Imagen

    Imagen

    Imagen

    Imagen

    Imagen

    Revistas de Cine por Franxesco
    (clic en cada imagen)