•  Ci-Cl Archivo
  • Imagen

    Archivo Cine-Clásico
    Acceso público

  •  Cumpleaños

  •  Buscar
  • Búsqueda avanzada


  •  Últimos miembros

  •  Estilo del foro


  •  Estadísticas
  • Totales
    Mensajes totales 150820
    Temas totales 12194
    Anuncios totales: 72
    Fijos totales: 24
    Adjuntos totales: 0

    Temas por día: 8
    Mensajes por día: 95
    Usuarios por día: 3
    Temas por usuario: 2
    Mensajes por usuario: 29
    Mensajes por tema: 12

    Usuarios totales 5193
    Nuestro Miembro más reciente es elaguainmovil

  •  Enlace con nosotros
  • Por favor, siéntase libre de enlazar a . Utilice el siguiente código HTML:



Imagen
mifune
¡Feliz Año Nuevo!
Cinefórum-Clásico es un foro de cine P2P, que utiliza las redes KAD (eMule)

Bienvenidos

Ver último mensaje Storytelling (Todd Solondz, 2001) WEBRip 720p Dual SE


Storytelling

Todd Solondz, 2001




Imagen


Imagen

Cosas que no se olvidan



Título original
Storytelling

Año
2001

Duración
87 min.

País Imagen
Director
Todd Solondz

Guión
Todd Solondz

Música
Nathan Larson (Canciones: Belle and Sebastian)

Fotografía
Frederick Elmes

Reparto
Selma Blair, Paul Giamatti, Mark Webber, John Goodman, Leo Fiztpatrick, Robert Wisdom, Julie Hagerty, Aleksa Palladino

Productora
Fine Line Features

Género
Comedia. Drama | Colegios & Universidad. Película de episodios. Cine independiente USA. Comedia negra

Sinopsis
Dos relatos independientes ambientados en un instituto y una universidad. Los personajes, llenos a la vez de esperanzas y temores, se plantean problemas respecto al sexo, la raza, la fama y la manipulación. (FILMAFFINITY)


Encode 720p Vs Dvd (Pal) Vs Dvd (Ntsc) Vs Dvd (Ntsc 4/3)

Imagen
Imagen
Imagen
Imagen

Aclaración

Hace unas horas postée este mismo aporte el cual he eliminado, para no liar mucho al personal, por lo que paso a explicar.

En el anterior aporte la fuente de partida venía con la versión conocida como R-Rated, en la cual en una secuencia aparece un cartel rectangular de color rojo tapando dicha escena, que es como se visiono en la mayoría de los cines de EE.UU. para librar la censura y poder ser estrenada en cines .

Solución: en esa escena he realizado un reesclado de una edición del dvd (pal) que no traía dicho rectangulito, corte y pega de video y audios...

Os dejo un enlace, para los curiosotes, de las diferencias:

R-Rated Vs Unrated



Code: Seleccionar todo
General
Unique ID                                : 249077576821421843411893669252033809971 (0xBB6298AB8BAF873FB3DB2E34CD960E33)
Complete name                            : C:\Program Files (x86)\eMule\Incoming\2001-Storytelling.(Unrated).WEBRip.720p.AC3[DMMD].mkv
Format                                   : Matroska
Format version                           : Version 4 / Version 2
File size                                : 2.88 GiB
Duration                                 : 1 h 26 min
Overall bit rate                         : 4 746 kb/s
Movie name                               : 2001-Storytelling.(Unrated).WEBRip.720p.AC3[DMMD]
Encoded date                             : UTC 2017-01-15 00:16:46
Writing application                      : mkvmerge v9.7.0 ('Numbers') 64bit
Writing library                          : libebml v1.3.4 + libmatroska v1.4.5
Attachments                              : 1

Video
ID                                       : 1
Format                                   : AVC
Format/Info                              : Advanced Video Codec
Format profile                           : High@L4.1
Format settings, CABAC                   : Yes
Format settings, ReFrames                : 9 frames
Codec ID                                 : V_MPEG4/ISO/AVC
Duration                                 : 1 h 26 min
Bit rate                                 : 3 849 kb/s
Width                                    : 1 280 pixels
Height                                   : 684 pixels
Display aspect ratio                     : 1.85:1
Frame rate mode                          : Constant
Frame rate                               : 23.976 FPS
Color space                              : YUV
Chroma subsampling                       : 4:2:0
Bit depth                                : 8 bits
Scan type                                : Progressive
Bits/(Pixel*Frame)                       : 0.183
Stream size                              : 2.34 GiB (81%)
Writing library                          : x264 core 148 r2638kMod 7599210
Encoding settings                        : cabac=1 / ref=9 / deblock=1:-3:-3 / analyse=0x3:0x133 / me=umh / subme=11 / psy=1 / fade_compensate=0.00 / psy_rd=1.10:0.00 / mixed_ref=1 / me_range=32 / chroma_me=1 / trellis=2 / 8x8dct=1 / cqm=0 / deadzone=21,11 / fast_pskip=0 / chroma_qp_offset=-2 / threads=6 / lookahead_threads=1 / sliced_threads=0 / nr=0 / decimate=0 / interlaced=0 / bluray_compat=0 / constrained_intra=0 / fgo=0 / bframes=11 / b_pyramid=2 / b_adapt=2 / b_bias=0 / direct=3 / weightb=1 / open_gop=0 / weightp=2 / keyint=250 / keyint_min=23 / scenecut=40 / intra_refresh=0 / rc=crf / mbtree=0 / crf=19.5000 / qcomp=0.62 / qpmin=0 / qpmax=69 / qpstep=4 / ip_ratio=1.40 / pb_ratio=1.30 / aq=3:1.00
Language                                 : English
Default                                  : Yes
Forced                                   : No

Audio #1
ID                                       : 2
Format                                   : AC-3
Format/Info                              : Audio Coding 3
Mode extension                           : CM (complete main)
Format settings, Endianness              : Big
Codec ID                                 : A_AC3
Duration                                 : 1 h 26 min
Bit rate mode                            : Constant
Bit rate                                 : 448 kb/s
Channel(s)                               : 6 channels
Channel positions                        : Front: L C R, Side: L R, LFE
Sampling rate                            : 48.0 kHz
Frame rate                               : 31.250 FPS (1536 spf)
Bit depth                                : 16 bits
Compression mode                         : Lossy
Stream size                              : 278 MiB (9%)
Language                                 : English
Default                                  : Yes
Forced                                   : No

Audio #2
ID                                       : 3
Format                                   : AC-3
Format/Info                              : Audio Coding 3
Mode extension                           : CM (complete main)
Format settings, Endianness              : Big
Codec ID                                 : A_AC3
Duration                                 : 1 h 26 min
Bit rate mode                            : Constant
Bit rate                                 : 448 kb/s
Channel(s)                               : 6 channels
Channel positions                        : Front: L C R, Side: L R, LFE
Sampling rate                            : 48.0 kHz
Frame rate                               : 31.250 FPS (1536 spf)
Bit depth                                : 16 bits
Compression mode                         : Lossy
Delay relative to video                  : 230 ms
Stream size                              : 278 MiB (9%)
Language                                 : Spanish
Default                                  : No
Forced                                   : No

Text #1
ID                                       : 4
Format                                   : UTF-8
Codec ID                                 : S_TEXT/UTF8
Codec ID/Info                            : UTF-8 Plain Text
Duration                                 : 1 h 26 min
Bit rate                                 : 46 b/s
Count of elements                        : 956
Stream size                              : 29.2 KiB (0%)
Language                                 : Spanish
Default                                  : Yes
Forced                                   : No

Text #2
ID                                       : 5
Format                                   : UTF-8
Codec ID                                 : S_TEXT/UTF8
Codec ID/Info                            : UTF-8 Plain Text
Duration                                 : 26 min 52 s
Bit rate                                 : 0 b/s
Count of elements                        : 3
Stream size                              : 46.0 Bytes (0%)
Title                                    : Forzados
Language                                 : Spanish
Default                                  : No
Forced                                   : No

Text #3
ID                                       : 6
Format                                   : UTF-8
Codec ID                                 : S_TEXT/UTF8
Codec ID/Info                            : UTF-8 Plain Text
Duration                                 : 1 h 23 min
Bit rate                                 : 54 b/s
Count of elements                        : 1167
Stream size                              : 33.0 KiB (0%)
Language                                 : English
Default                                  : No
Forced                                   : No

Menu
00:00:00.000                             : en:Chapter 1
00:02:22.567                             : en:Chapter 2
00:05:02.034                             : en:Chapter 3
00:08:28.167                             : en:Chapter 4
00:10:55.367                             : en:Chapter 5
00:16:05.533                             : en:Chapter 6
00:21:49.666                             : en:Chapter 7
00:27:18.032                             : en:Chapter 8
00:32:13.665                             : en:Chapter 9
00:33:48.332                             : en:Chapter 10
00:36:53.365                             : en:Chapter 11
00:38:32.032                             : en:Chapter 12
00:41:07.866                             : en:Chapter 13
00:44:03.666                             : en:Chapter 14
00:49:16.166                             : en:Chapter 15
00:52:53.833                             : en:Chapter 16
00:57:24.166                             : en:Chapter 17
01:00:16.332                             : en:Chapter 18
01:01:49.199                             : en:Chapter 19
01:04:38.033                             : en:Chapter 20
01:09:11.500                             : en:Chapter 21
01:12:59.533                             : en:Chapter 22
01:16:11.833                             : en:Chapter 23
01:20:22.333                             : en:Chapter 24
01:23:25.000                             : en:Chapter 25




CAPTURAS

Imagen
Imagen
Imagen
Imagen
Imagen
Imagen



Enlaces de descarga

Imagen


ed2k://|file|2001-Storytelling.Unrated.WEBRip.720p.AC3[DMMD].mkv|3093239957|A342CAD4DF3942AF539A2B402A57A254|h=USA23Z3DRAK4J3G2NRPQD26FNN3NFIEQ|/

Vistas: 125  •  Comentarios: 3  •  Escribir comentario [ Atras ]

  • ¿Quién está conectado?
  • Hay 11 Usuarios identificados :: 5 registrados, 0 ocultos y 6 invitados (basados en usuarios activos en los últimos 5 minutos)
    La mayor cantidad de usuarios identificados fue 75 el 18 May 2016, 22:23

    Usuarios registrados: boettcher, droid, jomime, RickBrice, Strait





  •  Cinefórum-Clásico recomienda

  •  Cinefórum-Clásico recomienda

  •  Cinefórum-Clásico recomienda
  • Imagen

    Imagen

    Imagen

    Imagen

    Imagen

    Revistas de Cine por Franxesco
    (clic en cada imagen)