•  Ci-Cl Archivo
  • Imagen

    Archivo Cine-Clásico
    Acceso público

  •  Cumpleaños

  •  Buscar
  • Búsqueda avanzada


  •  Últimos miembros

  •  Estilo del foro


  •  Estadísticas
  • Totales
    Mensajes totales 174251
    Temas totales 13545
    Anuncios totales: 72
    Fijos totales: 34
    Adjuntos totales: 0

    Temas por día: 7
    Mensajes por día: 92
    Usuarios por día: 3
    Temas por usuario: 3
    Mensajes por usuario: 33
    Mensajes por tema: 13

    Usuarios totales 5306
    Nuestro Miembro más reciente es tangos01

  •  Enlace con nosotros
  • Por favor, siéntase libre de enlazar a . Utilice el siguiente código HTML:



Imagen
chuschaos

Cinefórum-Clásico es un foro de cine que utiliza las redes KAD (eMule)

Bienvenidos

Ver último mensaje Anna (Alberto Lattuada, 1951) DVDRip Trial SI (SE)

1, 2

Ana (AKA Anna)
1951

Imagen

ImagenImagen



DIRECTOR: Alberto Lattuada
PRODUCTORA: Coproducción Italia-Francia
GUIÓN: Dino Risi, Rodolfo Sonego, Giuseppe Berto, Franco Brusati, Ivo Perilli
MÚSICA: Nino Rota
FOTOGRAFÍA: Otello Martelli



ARGUMENTO Anna es una novicia a punto de profesar. La llegada al hospital donde trabaja de un antiguo novio, herido en un accidente, suscitará en ella un serio conflicto personal. (FILMAFFINITY) IMDB: http://www.imdb.com/title/tt0043287/

Doblaje Cines 1953: http://www.eldoblaje.com/datos/FichaPel ... p?id=18655
Doblaje TVE 1984: http://www.eldoblaje.com/datos/FichaPel ... p?id=13846

Reparto: Silvana Mangano, Vittorio Gassman, Raf Vallone, Jacques Dumesnil, Gaby Morlay, Sophia Loren


Datos Técnicos:

Code: Seleccionar todo
General:

Complete name                    : 1951 Ana (AKA Anna) (Alberto Lattuada, 1951) DVDRip Trial (Spa (Doblaje Cines 1953 - TVE 1984)-Ita) SIng by Golondron.mkv
Format                           : Matroska
Format version                   : Version 2
File size                        : 1.66 GiB
Duration                         : 1h 35mn
Overall bit rate                 : 2 485 Kbps
Encoded date                     : UTC
Writing application              : mkvmerge v4.4.0 ('Die Wiederkehr') realizado en Oct 31 2010 21:52:48
Writing library                  : Lavf55.12.0

Video
ID                               : 1
Format                           : AVC
Format/Info                      : Advanced Video Codec
Format profile                   : High@L4.1
Format settings, CABAC           : Yes
Format settings, ReFrames        : 4 frames
Muxing mode                      : Header stripping
Codec ID                         : V_MPEG4/ISO/AVC
Duration                         : 1h 35mn
Bit rate                         : 1 796 Kbps
Width                            : 702 pixels
Height                           : 576 pixels
Display aspect ratio             : 1.299
Original display aspect ratio    : 1.300
Frame rate                       : 25.000 fps
Color space                      : YUV
Chroma subsampling               : 4:2:0
Bit depth                        : 8 bits
Scan type                        : Progressive
Bits/(Pixel*Frame)               : 0.178
Stream size                      : 1.20 GiB (72%)
Title                            : Vídeo
Writing library                  : x264 core 142 r2479 dd79a61
Encoding settings                : cabac=1 / ref=3 / deblock=1:0:0 / analyse=0x3:0x113 / me=hex / subme=7 / psy=1 / psy_rd=1.00:0.00 / mixed_ref=1 / me_range=16 / chroma_me=1 / trellis=1 / 8x8dct=1 / cqm=0 / deadzone=21,11 / fast_pskip=1 / chroma_qp_offset=-2 / threads=6 / lookahead_threads=1 / sliced_threads=0 / nr=0 / decimate=1 / interlaced=0 / bluray_compat=0 / constrained_intra=0 / bframes=3 / b_pyramid=2 / b_adapt=1 / b_bias=0 / direct=1 / weightb=1 / open_gop=0 / weightp=2 / keyint=250 / keyint_min=25 / scenecut=40 / intra_refresh=0 / rc_lookahead=40 / rc=crf / mbtree=1 / crf=18.0 / qcomp=0.60 / qpmin=0 / qpmax=69 / qpstep=4 / vbv_maxrate=62500 / vbv_bufsize=78125 / crf_max=0.0 / nal_hrd=none / filler=0 / ip_ratio=1.40 / aq=1:1.00
Language                         : Italian
Default                          : Yes
Forced                           : No
Color primaries                  : BT.470-6 System B, BT.470-6 System G, BT.601-6 625, BT.1358 625, BT.1700 625 PAL, BT.1700 625 SECAM
Transfer characteristics         : BT.709-5, BT.1361
Matrix coefficients              : BT.601-6 525, BT.1358 525, BT.1700 NTSC, SMPTE 170M

Audio #1
ID                               : 2
Format                           : MPEG Audio
Format version                   : Version 1
Format profile                   : Layer 3
Mode                             : Joint stereo
Muxing mode                      : Header stripping
Codec ID                         : A_MPEG/L3
Codec ID/Hint                    : MP3
Duration                         : 1h 35mn
Bit rate mode                    : Constant
Bit rate                         : 320 Kbps
Channel(s)                       : 2 channels
Sampling rate                    : 48.0 KHz
Compression mode                 : Lossy
Delay relative to video          : -80ms
Stream size                      : 219 MiB (13%)
Title                            : Doblaje original cines 1953
Language                         : Italian
Default                          : Yes
Forced                           : No

Audio #2
ID                               : 3
Format                           : MPEG Audio
Format version                   : Version 1
Format profile                   : Layer 3
Mode                             : Joint stereo
Mode extension                   : MS Stereo
Muxing mode                      : Header stripping
Codec ID                         : A_MPEG/L3
Codec ID/Hint                    : MP3
Duration                         : 1h 35mn
Bit rate mode                    : Constant
Bit rate                         : 128 Kbps
Channel(s)                       : 2 channels
Sampling rate                    : 44.1 KHz
Compression mode                 : Lossy
Delay relative to video          : -80ms
Stream size                      : 87.7 MiB (5%)
Title                            : Redoblaje TVE 1984
Language                         : English
Default                          : No
Forced                           : No

Audio #3
ID                               : 4
Format                           : AC-3
Format/Info                      : Audio Coding 3
Mode extension                   : CM (complete main)
Muxing mode                      : Header stripping
Codec ID                         : A_AC3
Duration                         : 1h 35mn
Bit rate mode                    : Constant
Bit rate                         : 192 Kbps
Channel(s)                       : 2 channels
Channel positions                : Front: L R
Sampling rate                    : 48.0 KHz
Bit depth                        : 16 bits
Compression mode                 : Lossy
Delay relative to video          : -5ms
Stream size                      : 131 MiB (8%)
Title                            : V.O.
Language                         : Italian
Default                          : No
Forced                           : No

Text
ID                               : 5
Format                           : VobSub
Muxing mode                      : zlib
Codec ID                         : S_VOBSUB
Codec ID/Info                    : The same subtitle format used on DVDs
Title                            : Inglés
Language                         : English
Default                          : No
Forced                           : No

Menu
00:00:00.000                     : :Chapter 1
00:05:57.320                     : :Chapter 2
00:12:20.040                     : :Chapter 3
00:19:24.360                     : :Chapter 4
00:24:29.600                     : :Chapter 5
00:29:11.440                     : :Chapter 6
00:34:48.400                     : :Chapter 7
00:42:06.240                     : :Chapter 8
00:49:42.280                     : :Chapter 9
00:53:54.480                     : :Chapter 10
01:00:40.600                     : :Chapter 11
01:06:03.520                     : :Chapter 12
01:12:47.560                     : :Chapter 13
01:18:18.800                     : :Chapter 14
01:23:58.880                     : :Chapter 15
01:29:10.360                     : :Chapter 16






Capturas:

ImagenImagen
ImagenImagen
ImagenImagen
ImagenImagen


Enlace: (Ripeo de Golondron, encontrado en emule)

ed2k://|file|1951%20Ana%20(AKA%20Anna)%20(Alberto%20Lattuada,%201951)%20DVDRip%20Trial%20(Spa%20(Doblaje%20Cines%201953%20-%20TVE%201984)-Ita)%20SIng%20by%20Golondron.mkv|1784815828|E8BF26EBB00464A525F6D07C76606C3E|h=BXQTUFHS3RPNJHLU2T3KY6KDO7BO4XSF|/

Vistas: 320  •  Comentarios: 19  •  Escribir comentario [ Atras ]

  • ¿Quién está conectado?
  • Hay 18 Usuarios identificados :: 4 registrados, 1 oculto y 13 invitados (basados en usuarios activos en los últimos 5 minutos)
    La mayor cantidad de usuarios identificados fue 91 el 25 Feb 2017, 15:04

    Usuarios registrados: DCINE, hel, Jesús Cortés, satisati





  •  Cinefórum-Clásico recomienda

  •  Cinefórum-Clásico recomienda

  •  Cinefórum-Clásico recomienda
  • Imagen

    Imagen

    Imagen

    Imagen

    Imagen

    Revistas de Cine por Franxesco
    (clic en cada imagen)