•  Ci-Cl Archivo
  • Imagen

    Archivo Cine-Clásico
    Acceso público

  •  Cumpleaños

  •  Buscar
  • Búsqueda avanzada


  •  Últimos miembros

  •  Estilo del foro


  •  Estadísticas
  • Totales
    Mensajes totales 168024
    Temas totales 13226
    Anuncios totales: 72
    Fijos totales: 34
    Adjuntos totales: 0

    Temas por día: 7
    Mensajes por día: 93
    Usuarios por día: 3
    Temas por usuario: 3
    Mensajes por usuario: 32
    Mensajes por tema: 13

    Usuarios totales 5273
    Nuestro Miembro más reciente es orbtwin

  •  Enlace con nosotros
  • Por favor, siéntase libre de enlazar a . Utilice el siguiente código HTML:



Imagen
Bunker
Cinefórum-Clásico es un foro de cine que utiliza las redes KAD (eMule)

Bienvenidos

Ver último mensaje Le due orfanelle (Giacomo Gentilomo, 1954) TVRip VOSE


La copia circula por la Red. El subtitulado y la traducción son míos.

Imagen

Imagen

imdb: http://www.imdb.com/title/tt0046940/


La acción se sitúa a finales del siglo XVIII en Francia. Es la historia de dos huérfanas, Enrichetta y Luisa que, tras el fallecimiento de sus padres, se trasladan a París para intentar hallar alguna cura para la ceguera que padece Luisa (cuya madre pertenece a la familia noble de los De Vaudrey, quien decidió abandonarla en la catedral de Notre-Dame a causa del origen de su padre, para ser posteriormente acogida por la humilde familia de Enrichetta). En la gran metrópolis, Enrichetta será raptada por un marqués sin escrúpulos y la desvalida Louise caerá en las garras de la familia Frochard, quienes no dudarán en explotar la ceguera de la joven obligándola a mendigar.

Versión cinematográfica del conocido folletín de D’Ennery y Cormon, realzado musicalmente por Nino Rota con una partitura elegantísima, refinada y muy retentiva melódicamente.
José María Latorre. “Nino Rota. La imagen de la música”. Montesinos, 1989

Ficha:
Director: Giacomo Gentilomo
Producción: Rizzoli film (Roma) Francinex (París)
Director producción: Jone Tuzi
Guión: Filippo Sanjust, según novela de Adolfo D’Ennery
Diálogos: Yves Mirande
Fotografía: Anchise Brizzi (Eastmancolor)
Montaje: Elsa Dubbini
Música: Nino Rota
Decorados: Virgilio Marchi
Ayudantes dirección: Paolo Heusch y Alain Roux
Intérpretes: Myriam Bru (Enrichetta Gérard), Milly Vitale (Luisa), André Luguet (Conde de Linières), Franco Interlenghi (Ruggero de Vaudrey), Nadia Gray (Diana, condesa de Linières), Jacques Castelot (Marqués de Preles), Gabrielle Dorziat (Señora Frochard), Andrea Checchi (Capitán Marrest), Adriana Benetti (Lucia, la madre), Mirko Ellis (Giacomo Frochard), Bianca Fusari (Marianna), Giuseppe Porelli, Paolo Poli (Pietro Frochard), Sandro Ruffini (Doctor Martin), Alessandro Fersen (Michele Gérard), Miranda Campa (Madre superiora), Carlo Duse,

Datos técnicos:
Code: Seleccionar todo
Complete name                    : F:\Incoming\Le Due Orfanelle 1954 ITA Regia G. Gentilomo con Myriam Bru, Milly Vitale, Franco Interlenghi Rete4.avi
Format                           : AVI
Format/Info                      : Audio Video Interleave
File size                        : 1.36 GiB
Duration                         : 1h 25mn
Overall bit rate                 : 2 287 Kbps
Writing library                  : VirtualDub build 18160/release

Video
Format                           : MPEG-4 Visual
Format settings, BVOP            : No
Format settings, QPel            : No
Format settings, GMC             : No warppoints
Format settings, Matrix          : Default (H.263)
Codec ID                         : DX50
Codec ID/Hint                    : DivX 5
Duration                         : 1h 25mn
Bit rate                         : 2 021 Kbps
Width                            : 704 pixels
Height                           : 528 pixels
Display aspect ratio             : 4/3
Frame rate                       : 25.000 fps
Resolution                       : 24 bits
Colorimetry                      : 4:2:0
Scan type                        : Progressive
Bits/(Pixel*Frame)               : 0.217
Stream size                      : 1.20 GiB (88%)
Writing library                  : DivX 5.2.1 (WaffleDay) (UTC 2004-09-08)

Audio
Format                           : AC-3
Format/Info                      : Audio Coding 3
Codec ID                         : 2000
Duration                         : 1h 25mn
Bit rate mode                    : Constant
Bit rate                         : 256 Kbps
Channel(s)                       : 2 channels
Channel positions                : L R
Sampling rate                    : 48.0 KHz
Video delay                      : 64ms
Stream size                      : 156 MiB (11%)
Alignment                        : Split accross interleaves
Interleave, duration             : 40 ms (1.00 video frame)
Interleave, preload duration     : 500 ms


Capturas:



Imagen Imagen

Imagen Imagen

Imagen Imagen

Imagen Imagen

Imagen Imagen

Imagen Imagen

Enlaces:
Película: ed2k://|file|Le%20Due%20Orfanelle%201954%20ITA%20Regia%20G.%20Gentilomo%20con%20Myriam%20Bru,%20Milly%20Vitale,%20Franco%20Interlenghi%20Rete4.avi|1461708800|75ACB4BE1958E617A4378C2DD28B2C0C|h=VPZ2P5B7UQIAZFKAEJEDMW7HGVHIKNOG|/
Subtítulos en descarga directa: http://www.subdivx.com/X6XNTEwMTM5X-le- ... -1954.html

Un saludo.
Ignacio.

Vistas: 125  •  Comentarios: 8  •  Escribir comentario [ Atras ]

  • ¿Quién está conectado?
  • Hay 13 Usuarios identificados :: 8 registrados, 1 oculto y 4 invitados (basados en usuarios activos en los últimos 5 minutos)
    La mayor cantidad de usuarios identificados fue 91 el 25 Feb 2017, 16:04

    Usuarios registrados: Bing [Bot], collaciu, hammett, leonidas, montagut, Phillys, runciter, SilverSa





  •  Cinefórum-Clásico recomienda

  •  Cinefórum-Clásico recomienda

  •  Cinefórum-Clásico recomienda
  • Imagen

    Imagen

    Imagen

    Imagen

    Imagen

    Revistas de Cine por Franxesco
    (clic en cada imagen)