•  Ci-Cl Archivo
  • Imagen

    Archivo Cine-Clásico
    Acceso público

  •  Cumpleaños

  •  Buscar
  • Búsqueda avanzada


  •  Últimos miembros

  •  Estilo del foro


  •  Estadísticas
  • Totales
    Mensajes totales 175635
    Temas totales 13646
    Anuncios totales: 72
    Fijos totales: 34
    Adjuntos totales: 0

    Temas por día: 7
    Mensajes por día: 92
    Usuarios por día: 3
    Temas por usuario: 3
    Mensajes por usuario: 33
    Mensajes por tema: 13

    Usuarios totales 5316
    Nuestro Miembro más reciente es DODGETERO

  •  Enlace con nosotros
  • Por favor, siéntase libre de enlazar a . Utilice el siguiente código HTML:



Imagen
Bunker

Cinefórum-Clásico es un foro de cine que utiliza las redes KAD (eMule)

Bienvenidos

Ver último mensaje The Green Slime (Kinji Fukasaku, 1968) BDRip 1080p Dual SE-I


Imagen

Imagen

Título original: The Green Slime
Director: Kinji Fukasaku
Año/País: 1968/USA/Japón
Duración: 90 min
Género: Ciencia ficción, Fantástico

INTÉRPRETES
Robert Horton, Richard Jaeckel, Luciana Paluzzi, Bud Widom,
Ted Gunther, David Yorston, Robert Dunham, Gary Randolf

Imagen

SINOPSIS
Un asteroide gigante se encamina hacia la Tierra, por lo que varios astronautas desembarcan de una estación espacial cercana con la intención de volarlo. La misión resulta un éxito pero, de regreso a la estación, los astronautas llevarán consigo, sin saberlo, un alienígena verde y viscoso que muta en múltiples monstruos con tentáculos de un sólo ojo (FILMAFFINITY)


ed2k://|file|Batalla.m%C3%A1s.all%C3%A1.de.las.Estrellas.(The.Green.Slime).1968.BDrip.1080p.mkv|11796489290|EAC0A7B032F9F77035525FB8714EDA2A|h=J7X6RADUEPZQIFK2TUPC4TUJYFLX5YXV|/

CAPTURAS
Imagen
Imagen
Imagen
Imagen
Imagen


DATOS TÉCNICOS
Video: BDRip
Size: 10,99 GB
Codec: x264
Bitrate: 16.5 Mbps
Ancho (pix) x Alto 1920x800 (2:40.1)
Fps: 23,976 fps

Audio #1 Castellano
Codec: AC3 (Dolby Digital)
Bitrate: 192 kbits/seg.
Canales: 2
Muestreo: 48.000 kHz

Audio #2 Inglés
Codec: AC3 (Dolby Digital)
Bitrate: 448 kbits/seg.
Canales: 2.0
Muestreo: 48.000 kHz

Subtítulos:
Castellano (Vobsub)
Inglés SDH (PGS)

Spoiler:
File size : 11.0 GiB
Duration : 1h 30mn
Overall bit rate : 17.4 Mbps
Encoded date : UTC 2017-12-07 09:39:03
Writing application : mkvmerge v18.0.0 ('Apricity') 64-bit
Writing library : libebml v1.3.5 + libmatroska v1.4.8
DURATION : 01:29:54.681000000
NUMBER_OF_FRAMES : 2090
NUMBER_OF_BYTES : 38690039
_STATISTICS_WRITING_APP : mkvmerge v18.0.0 ('Apricity') 64-bit
_STATISTICS_WRITING_DATE_UTC : 2017-12-07 09:39:03
_STATISTICS_TAGS : BPS DURATION NUMBER_OF_FRAMES NUMBER_OF_BYTES

Video
ID : 1
Format : AVC
Format/Info : Advanced Video Codec
Format profile : High@L4.1
Format settings, CABAC : Yes
Format settings, ReFrames : 4 frames
Codec ID : V_MPEG4/ISO/AVC
Duration : 1h 30mn
Bit rate : 16.5 Mbps
Width : 1 920 pixels
Height : 800 pixels
Display aspect ratio : 2.40:1
Frame rate mode : Constant
Frame rate : 23.976 fps
Color space : YUV
Chroma subsampling : 4:2:0
Bit depth : 8 bits
Scan type : Progressive
Bits/(Pixel*Frame) : 0.447
Stream size : 10.4 GiB (94%)
Title : 1968.The.Green.Slime.BDRip.1080p
Writing library : x264 core 152 r2851 ba24899
Encoding settings : cabac=1 / ref=4 / deblock=1:-2:-2 / analyse=0x3:0x133 / me=tesa / subme=11 / psy=1 / psy_rd=1.00:0.25 / mixed_ref=1 / me_range=24 / chroma_me=1 / trellis=2 / 8x8dct=1 / cqm=0 / deadzone=6,6 / fast_pskip=1 / chroma_qp_offset=-4 / threads=4 / lookahead_threads=1 / sliced_threads=0 / nr=0 / decimate=0 / interlaced=0 / bluray_compat=0 / constrained_intra=0 / bframes=3 / b_pyramid=2 / b_adapt=1 / b_bias=0 / direct=3 / weightb=1 / open_gop=0 / weightp=2 / keyint=240 / keyint_min=23 / scenecut=40 / intra_refresh=0 / rc_lookahead=60 / rc=crf / mbtree=1 / crf=22.0 / qcomp=0.80 / qpmin=0 / qpmax=69 / qpstep=4 / vbv_maxrate=62500 / vbv_bufsize=78125 / crf_max=0.0 / nal_hrd=none / filler=0 / ip_ratio=1.10 / aq=1:0.50
Language : English
Default : Yes
Forced : No

Audio #1
ID : 2
Format : AC-3
Format/Info : Audio Coding 3
Mode extension : CM (complete main)
Format settings, Endianness : Big
Codec ID : A_AC3
Duration : 1h 30mn
Bit rate mode : Constant
Bit rate : 192 Kbps
Channel(s) : 2 channels
Channel positions : Front: L R
Sampling rate : 48.0 KHz
Compression mode : Lossy
Stream size : 124 MiB (1%)
Language : Spanish
Default : Yes
Forced : Yes

Audio #2
ID : 3
Format : AC-3
Format/Info : Audio Coding 3
Mode extension : CM (complete main)
Format settings, Endianness : Big
Codec ID : A_AC3
Duration : 1h 30mn
Bit rate mode : Constant
Bit rate : 448 Kbps
Channel(s) : 2 channels
Channel positions : Front: L R
Sampling rate : 48.0 KHz
Compression mode : Lossy
Stream size : 289 MiB (3%)
Language : English
Default : No
Forced : No

Text #1
ID : 4
Format : VobSub
Muxing mode : zlib
Codec ID : S_VOBSUB
Codec ID/Info : Picture based subtitle format used on DVDs
Language : Spanish
Default : No
Forced : No

Text #2
ID : 5
Format : PGS
Muxing mode : zlib
Codec ID : S_HDMV/PGS
Codec ID/Info : Picture based subtitle format used on BDs/HD-DVDs
Title : English SDH (PGS)
Language : English
Default : No
Forced : No

Menu
00:00:00.000 : en:00:00:00.000
00:02:44.831 : en:00:02:44.831
00:03:52.232 : en:00:03:52.232
00:08:40.228 : en:00:08:40.228
00:14:24.614 : en:00:14:24.614
00:17:34.804 : en:00:17:34.804
00:20:08.082 : en:00:20:08.082
00:25:04.128 : en:00:25:04.128
00:28:48.185 : en:00:28:48.185
00:30:21.403 : en:00:30:21.403
00:33:13.033 : en:00:33:13.033
00:35:13.528 : en:00:35:13.528
00:39:38.876 : en:00:39:38.876
00:41:33.950 : en:00:41:33.950
00:46:32.331 : en:00:46:32.331
00:50:46.252 : en:00:50:46.252
00:53:06.183 : en:00:53:06.183
00:57:04.212 : en:00:57:04.212
00:59:54.132 : en:00:59:54.132
01:03:37.439 : en:01:03:37.439
01:06:40.455 : en:01:06:40.455
01:08:55.048 : en:01:08:55.048
01:11:53.559 : en:01:11:53.559
01:15:08.212 : en:01:15:08.212
01:17:36.485 : en:01:17:36.485
01:20:42.796 : en:01:20:42.796
01:22:52.467 : en:01:22:52.467
01:26:28.975 : en:01:26:28.975
01:28:17.501 : en:01:28:17.501
01:29:30.198 : en:01:29:30.198

:fisch:

Vistas: 278  •  Comentarios: 8  •  Escribir comentario [ Atras ]

  • ¿Quién está conectado?
  • Hay 10 Usuarios identificados :: 0 registrado, 0 ocultos y 10 invitados (basados en usuarios activos en los últimos 5 minutos)
    La mayor cantidad de usuarios identificados fue 91 el 25 Feb 2017, 15:04

    Usuarios registrados: No hay usuarios registrados visitando el Foro





  •  Cinefórum-Clásico recomienda

  •  Cinefórum-Clásico recomienda

  •  Cinefórum-Clásico recomienda
  • Imagen

    Imagen

    Imagen

    Imagen

    Imagen

    Revistas de Cine por Franxesco
    (clic en cada imagen)