•  Ci-Cl Archivo
  • Imagen

    Archivo Cine-Clásico
    Acceso público

  •  Cumpleaños

  •  Buscar
  • Búsqueda avanzada


  •  Últimos miembros

  •  Estilo del foro


  •  Estadísticas
  • Totales
    Mensajes totales 175689
    Temas totales 13651
    Anuncios totales: 72
    Fijos totales: 34
    Adjuntos totales: 0

    Temas por día: 7
    Mensajes por día: 92
    Usuarios por día: 3
    Temas por usuario: 3
    Mensajes por usuario: 33
    Mensajes por tema: 13

    Usuarios totales 5316
    Nuestro Miembro más reciente es DODGETERO

  •  Enlace con nosotros
  • Por favor, siéntase libre de enlazar a . Utilice el siguiente código HTML:



Imagen
mifune

Cinefórum-Clásico es un foro de cine que utiliza las redes KAD (eMule)

Bienvenidos

Ver último mensaje Der Var Engang (Carl T. Dreyer, 1922) DVDRip VO/I+SE

1, 2

ÉRASE UNA VEZ
(1922)


Imagen

IMDb


Producción
Palladium Film

Director
Carl Theodor Dreyer

Guión
Carl Theodor Dreyer
Palle Rosenkrantz

Argumento
La obra de
Holger Drachmann

Intérpretes
Clara Pontoppidan
Svend Methling
Peter Jerndorff
Hakon Ahnfelt-Rønne
Mohamed Archer
Bodil Faber
Wilhelmine Henriksen
Lili Lani


En una tierra llamada Illyria, una princesa rechaza repetidamente a todos sus pretendientes - incluso al príncipe de Dinamarca, que queda locamente enamorado de ella. Con el fin de llamar para su atención, el príncipe adopta otra identidad y junto con su ayudante "Smokehat", planifica una estratagema para ganarse el corazón de la princesa... La obra original de Holger Drachmann ya había sido adaptada para la pantalla en 1907. (FILMAFFINITY)


Ripeo procedente de Rutracker.


Érase una vez es la pieza más popular del teatro danés, del extravagante tardorromántico Holger Drachmann, escrita en 1887. Se trata de un cuento fantástico, cuya tradición es muy antigua (el mismo asunto se encuentra en el texto "La princesa y el porquero", de Hans Christian Andersen), y que ya había sido llevado al cine en dos ocasiones: por Viggo Larsen en 1907 y por Axel Breidhal en 1916.

Durante largos años este film se consideró definitivamente perdido. Como anécdota hay que recordar que la Cinemateca Danesa poseía tan sólo 75 metros de película, encontrados por casualidad en la tienda de un anticuario, donde se usaba para enseñar a los niños el funcionamiento de un proyector de juguete. En 1964 se encontró otra copia. La película había sido dividida en tres bobinas y faltaba la tercera: la media hora final de la cinta, de la que no obstante se conservan algunos fotogramas sueltos.
Mario Miguez



Imagen


Datos técnicos:
Code: Seleccionar todo

General
Complete name               : Der var engang (Carl T. Dreyer, 1922) [rutracker.org].avi
Format                      : AVI
Format/Info                 : Audio Video Interleave
File size                   : 1.37 GiB
Duration                    : 1 h 14 min
Overall bit rate            : 2 618 kb/s
Writing application         : FairUse Wizard - http://fairusewizard.com
Writing library             : The best and REALLY easy backup tool

Video
ID                          : 0
Format                      : MPEG-4 Visual
Format settings, BVOP       : No
Format settings, QPel       : No
Format settings, GMC        : No warppoints
Format settings, Matrix     : Default (H.263)
Codec ID                    : DX50
Codec ID/Hint               : DivX 5
Duration                    : 1 h 14 min
Bit rate                    : 2 480 kb/s
Nominal bit rate            : 6 951 kb/s
Width                       : 688 pixels
Height                      : 496 pixels
Display aspect ratio        : 1.387
Frame rate                  : 25.000 FPS
Color space                 : YUV
Chroma subsampling          : 4:2:0
Bit depth                   : 8 bits
Scan type                   : Progressive
Compression mode            : Lossy
Bits/(Pixel*Frame)          : 0.291
Stream size                 : 1.30 GiB (95%)
Writing library             : DivX 5.2.1 (DrDivX 106) (UTC 2004-09-08)

Audio
ID                          : 1
Format                      : MPEG Audio
Format version              : Version 1
Format profile              : Layer 3
Mode                        : Joint stereo
Codec ID                    : 55
Codec ID/Hint               : MP3
Duration                    : 1 h 14 min
Bit rate mode               : Constant
Bit rate                    : 128 kb/s
Channel(s)                  : 2 channels
Sampling rate               : 48.0 kHz
Compression mode            : Lossy
Stream size                 : 68.5 MiB (5%)
Alignment                   : Aligned on interleaves
Interleave, duration        : 40  ms (1.00 video frame)
Interleave, preload duratio : 504  ms
Writing library             : LAME3.97b
Encoding settings           : -m j -V 4 -q 2 -lowpass 17 -b 128



Imagen
Imagen
Imagen
Imagen
Imagen


ed2k://|file|Der%20var%20engang%20(Carl%20T.%20Dreyer,%201922)%20[rutracker.org].avi|1469337600|DF6D27A5E828F36D5293FB4DBA17B2B1|h=537VN6D3D3KYYBI2RRDARKVVFKSCRDS7|/


Subtítulos en español obra de Federico1921:
http://www.subdivx.com/bajar.php?id=41513&u=1

Vistas: 221  •  Comentarios: 10  •  Escribir comentario [ Atras ]

  • ¿Quién está conectado?
  • Hay 9 Usuarios identificados :: 1 registrado, 0 ocultos y 8 invitados (basados en usuarios activos en los últimos 5 minutos)
    La mayor cantidad de usuarios identificados fue 91 el 25 Feb 2017, 15:04

    Usuarios registrados: Bing [Bot]





  •  Cinefórum-Clásico recomienda

  •  Cinefórum-Clásico recomienda

  •  Cinefórum-Clásico recomienda
  • Imagen

    Imagen

    Imagen

    Imagen

    Imagen

    Revistas de Cine por Franxesco
    (clic en cada imagen)