•  Ci-Cl Archivo
  • Imagen

    Archivo Cine-Clásico
    Acceso público

  •  Cumpleaños

  •  Buscar
  • Búsqueda avanzada


  •  Últimos miembros

  •  Estilo del foro


  •  Estadísticas
  • Totales
    Mensajes totales 164971
    Temas totales 13043
    Anuncios totales: 72
    Fijos totales: 34
    Adjuntos totales: 0

    Temas por día: 7
    Mensajes por día: 94
    Usuarios por día: 3
    Temas por usuario: 2
    Mensajes por usuario: 31
    Mensajes por tema: 13

    Usuarios totales 5262
    Nuestro Miembro más reciente es Jouzo

  •  Enlace con nosotros
  • Por favor, siéntase libre de enlazar a . Utilice el siguiente código HTML:



Imagen
gilles
Cinefórum-Clásico es un foro de cine que utiliza las redes KAD (eMule)

Bienvenidos

Ver último mensaje Pod igoto (Dako Dakovski, 1952) DVDRip VOSE


Imagen

Pod igoto

http://www.imdb.com/title/tt0234484/

Duración: 110 minutos
Director: Dako Dakovski
Guion: Georgi Kranzov, Pavel Spasov

Reparto:

Miroslav Mindov ... Boycho Ognyanov
Lili Popivanova .. Rada Gospozhina
Petko Karlukovsky ... Borimechkata
Vasil Kirkov .. Doktor Sokolov

Code: Seleccionar todo
 
General
Complete name                  : E:\temporal\videos\Pod igoto (Dako Dakovski, 1952) DVDRip.avi
Format                         : AVI
Format/Info                    : Audio Video Interleave
File size                      : 1.67 GiB
Duration                       : 1 h 52 min
Overall bit rate               : 2 137 kb/s

Video
ID                             : 0
Format                         : MPEG-4 Visual
Format profile                 : Advanced Simple@L4
Format settings, BVOP          : 2
Format settings, QPel          : No
Format settings, GMC           : No warppoints
Format settings, Matrix        : Default (H.263)
Codec ID                       : XVID
Codec ID/Hint                  : XviD
Duration                       : 1 h 52 min
Bit rate                       : 1 741 kb/s
Width                          : 720 pixels
Height                         : 576 pixels
Display aspect ratio           : 4:3
Frame rate                     : 25.000 FPS
Standard                       : PAL
Color space                    : YUV
Chroma subsampling             : 4:2:0
Bit depth                      : 8 bits
Scan type                      : Progressive
Compression mode               : Lossy
Bits/(Pixel*Frame)             : 0.168
Stream size                    : 1.36 GiB (82%)
Writing library                : XviD 64

Audio
ID                             : 1
Format                         : AC-3
Format/Info                    : Audio Coding 3
Mode extension                 : CM (complete main)
Format settings, Endianness    : Big
Codec ID                       : 2000
Duration                       : 1 h 52 min
Bit rate mode                  : Constant
Bit rate                       : 384 kb/s
Channel(s)                     : 2 channels
Channel positions              : Front: L R
Sampling rate                  : 48.0 kHz
Frame rate                     : 31.250 FPS (1536 spf)
Bit depth                      : 16 bits
Compression mode               : Lossy
Stream size                    : 308 MiB (18%)
Alignment                      : Aligned on interleaves
Interleave, duration           : 32  ms (0.80 video frame)


Bajo el yugo (en búlgaro, Под игото, Pod igoto) es una novela del escritor búlgaro Ivan Vazov (en búlgaro, Иван Вазов), que describe los preparativos y la ejecución del Levantamiento de Abril de 1876. Es una de las obras más conocidas y traducidas de la literatura búlgara.

Wikipedia: .Contexto histórico
En 1393, el Segundo Imperio Búlgaro, gobernado por Ivan Shishman, cae bajo la dominación turca. En fechas posteriores, el imperio otomano ocupará toda la península balcánica y parte de Europa Central. Durante los siglos de opresión turca, los levantamientos por parte de los búlgaros se repiten con cierta frecuencia (1408, 1598, 1686). Sin embargo, no es hasta mediados del siglo XIX, con el apoyo de Rusia, que estas rebeliones adquieren verdaderas posibilidades de éxito. En 1861, Georgi Sava Rakovski organiza la primera milicia de patriotas búlgaros en Belgrado. En 1873, Vasil Levski, principal exponente del movimiento revolucionario búlgaro, es capturado y ahorcado en Sofía. En 1876 se produce el Levantamiento de Abril (en búlgaro, Априлско въстание, Aprilsko vastanie) que se convierte en el mayor intento hasta la fecha de recuperar la soberanía perdida. Si bien este movimiento fracasa, consigue las simpatías de las sociedades europeas hacia la causa independentista búlgara, y es utilizado por Rusia para justificar su intervención en los conflictos de los Balcanes. Comienza así la Guerra de Liberación de 1877-78, que se saldará con victoria rusa y conducirá a la independencia limitada de Bulgaria en 1878 (la independencia definitiva se producirá en 1908).

Argumento
Ivan Kralicha, revolucionario búlgaro originario de Vidin (noroeste de Bulgaria), se fuga de la prisión turca de Diarbekir y busca refugio en la pequeña ciudad de Bela Cherkva (centro de Bulgaria). En ella se establece como maestro de escuela bajo el nombre falso de Boicho Ognianov, y entra en contacto con otros patriotas búlgaros de la localidad. Se enamora de la maestra Rada Gospoyina, que siente lo mismo por él. Pronto se convierte en líder del comité revolucionario local, y comienza a trabajar en la preparación de un levantamiento contra los turcos a escala nacional. Al cabo de unos meses, es desenmascarado por su rival y colaborador de la autoridad turca Kiriak Stefchov, y se ve obligado a escapar de nuevo. Herido, encuentra refugio en la aldea de Verigovo. Pasados unos meses, en febrero de 1876, regresa a Bela Cherkva, donde retoma sus actividades clandestinas. El Levantamiento de Abril, que estalla unos días antes de lo previsto, le sorprende en la cercana villa de Klisura. Participa en los combates que se producen en las montañas cercanas a esta población. Tras el fracaso del levantamiento, emprende camino de regreso a Bela Cherkva. Consigue encontrarse con Rada y con su compañero revolucionario Sokolov. Sin embargo, son sitiados por las tropas turcas en un molino en ruinas. Tras caer Rada bajo el fuego turco, y sin capacidad de escapatoria, Sokolov se suicida y Ognianov es abatido por los turcos.
Así, Bajo el yugo puede considerarse como una novela que, mediante la glorificación de la lucha contra el invasor extranjero, pretende exaltar el espíritu patriótico entre los miembros de una nación que acaba de conseguir su independencia.


Imagen
Imagen
Imagen
Imagen
Imagen
Imagen

DVDRip VOSE:
ed2k://|file|Pod%20igoto%20(Dako%20Dakovski,%201952)%20DVDRip.avi|1797922690|5B0550323AFF176C01CE06D70BD31BFA|h=GCJZPC7W5UMY43DJFHFYVWPKIKSJJFXH|/

SUBTITULOS: LILIYA
http://www.subdivx.com/X6XMzM0NTExX-pod-igoto-1952.html

Vistas: 106  •  Comentarios: 3  •  Escribir comentario [ Atras ]

  • ¿Quién está conectado?




  •  Cinefórum-Clásico recomienda

  •  Cinefórum-Clásico recomienda

  •  Cinefórum-Clásico recomienda
  • Imagen

    Imagen

    Imagen

    Imagen

    Imagen

    Revistas de Cine por Franxesco
    (clic en cada imagen)