•  Ci-Cl Archivo
  • Imagen

    Archivo Cine-Clásico
    Acceso público

  •  Cumpleaños

  •  Buscar
  • Búsqueda avanzada


  •  Últimos miembros

  •  Estilo del foro


  •  Estadísticas
  • Totales
    Mensajes totales 177634
    Temas totales 13774
    Anuncios totales: 72
    Fijos totales: 34
    Adjuntos totales: 0

    Temas por día: 7
    Mensajes por día: 91
    Usuarios por día: 3
    Temas por usuario: 3
    Mensajes por usuario: 33
    Mensajes por tema: 13

    Usuarios totales 5337
    Nuestro Miembro más reciente es mitohollywood

  •  Enlace con nosotros
  • Por favor, siéntase libre de enlazar a . Utilice el siguiente código HTML:



Imagen
chuschaos

Cinefórum-Clásico es un foro de cine que utiliza las redes KAD (eMule)

Bienvenidos

Ver último mensaje Die schwarze Loo (Max Mack, 1917) WebRip VOSE


DIE SCHWARZE LOO
(1917)


Imagen

IMDb


Producción
Greenbaum-Film GmbH (Berlin)

Director
Max Mack

Guión
Hans Brennert

Intérpretes
Maria Orska
Bruno Kastner
Theodor Loos

Género
Drama


Un compositor en crisis creativa conoce a Loo, una bailarina que actúa en los cafetuchos berlineses, llevándosela a vivir a su casa con el fin de recuperar su inspiración perdida y dar forma a su composición musical...

Copia descargada de europeanfilmgateway. Subtítulos obra de toerless.


Imagen


Datos técnicos:
Code: Seleccionar todo

General
Complete name               : Die schwarze Loo (Max Mack, 1917).mp4
Format                      : MPEG-4
Format profile              : Base Media / Version 2
Codec ID                    : mp42 (mp42/mp41/isom/avc1)
File size                   : 394 MiB
Duration                    : 1 h 3 min
Overall bit rate            : 862 kb/s
Encoded date                : UTC 2013-09-19 10:41:18
Tagged date                 : UTC 2013-09-19 10:41:18

Video
ID                          : 1
Format                      : AVC
Format/Info                 : Advanced Video Codec
Format profile              : High@L3.1
Format settings, CABAC      : Yes
Format settings, RefFrames  : 4 frames
Format settings, GOP        : M=4, N=75
Codec ID                    : avc1
Codec ID/Info               : Advanced Video Coding
Duration                    : 1 h 3 min
Bit rate                    : 750 kb/s
Width                       : 640 pixels
Height                      : 360 pixels
Display aspect ratio        : 16:9
Frame rate mode             : Constant
Frame rate                  : 25.000 FPS
Color space                 : YUV
Chroma subsampling          : 4:2:0
Bit depth                   : 8 bits
Scan type                   : Progressive
Bits/(Pixel*Frame)          : 0.130
Stream size                 : 342 MiB (87%)
Writing library             : x264 core 129 r2245 bc13772
Encoding settings           : cabac=1 / ref=3 / deblock=1:0:0 / analyse=0x3:0x113 / me=hex / subme=7 / psy=1 / psy_rd=1.00:0.00 / mixed_ref=1 / me_range=16 / chroma_me=1 / trellis=1 / 8x8dct=1 / cqm=0 / deadzone=21,11 / fast_pskip=1 / chroma_qp_offset=-2 / threads=12 / lookahead_threads=2 / sliced_threads=0 / nr=0 / decimate=1 / interlaced=0 / bluray_compat=0 / constrained_intra=0 / bframes=3 / b_pyramid=2 / b_adapt=1 / b_bias=0 / direct=1 / weightb=1 / open_gop=0 / weightp=2 / keyint=75 / keyint_min=25 / scenecut=40 / intra_refresh=0 / rc_lookahead=40 / rc=2pass / mbtree=1 / bitrate=750 / ratetol=1.0 / qcomp=0.60 / qpmin=5 / qpmax=69 / qpstep=4 / cplxblur=20.0 / qblur=0.5 / vbv_maxrate=1125 / vbv_bufsize=3750 / nal_hrd=none / ip_ratio=1.40 / aq=1:1.00
Encoded date                : UTC 2013-09-19 10:41:18
Tagged date                 : UTC 2013-09-19 10:41:18

Audio
ID                          : 2
Format                      : AAC
Format/Info                 : Advanced Audio Codec
Format profile              : LC
Codec ID                    : 40
Duration                    : 1 h 3 min
Source duration             : 1 h 3 min
Bit rate mode               : Constant
Bit rate                    : 110 kb/s
Channel(s)                  : 2 channels
Channel positions           : Front: L R
Sampling rate               : 44.1 kHz
Frame rate                  : 43.066 FPS (1024 SPF)
Compression mode            : Lossy
Stream size                 : 50.1 MiB (13%)
Source stream size          : 50.1 MiB (13%)
Encoded date                : UTC 2013-09-19 10:41:18
Tagged date                 : UTC 2013-09-19 10:41:18



Imagen
Imagen
Imagen
Imagen


ed2k://|file|Die%20schwarze%20Loo%20(Max%20Mack,%201917).mp4|412835892|B895BBF04AE237E79E21DF48009594D2|h=ML5W54XCBBP3DRP2LVUQXXLQYO56OISD|/

Subtítulos en español obra de toerless:
https://subscene.com/subtitles/die-schw ... ish/986922

------------------------------------------------------------------------------------------------------------------------------
Una copia con subtítulos también se encuentra en el canal PELICULAS MUDAS / Silent cinema:

Mira en youtube.com

Vistas: 157  •  Comentarios: 9  •  Escribir comentario [ Atras ]

  • ¿Quién está conectado?
  • Hay 6 Usuarios identificados :: 3 registrados, 0 ocultos y 3 invitados (basados en usuarios activos en los últimos 5 minutos)
    La mayor cantidad de usuarios identificados fue 91 el 25 Feb 2017, 14:04

    Usuarios registrados: Bing [Bot], fluidoramon, hdjzgz





  •  Cinefórum-Clásico recomienda

  •  Cinefórum-Clásico recomienda

  •  Cinefórum-Clásico recomienda
  • Imagen

    Imagen

    Imagen

    Imagen

    Imagen

    Revistas de Cine por Franxesco
    (clic en cada imagen)