•  Ci-Cl Archivo
  • Imagen

    Archivo Cine-Clásico
    Acceso público

  •  Cumpleaños

  •  Buscar
  • Búsqueda avanzada


  •  Últimos miembros

  •  Estilo del foro


  •  Estadísticas
  • Totales
    Mensajes totales 177634
    Temas totales 13774
    Anuncios totales: 72
    Fijos totales: 34
    Adjuntos totales: 0

    Temas por día: 7
    Mensajes por día: 91
    Usuarios por día: 3
    Temas por usuario: 3
    Mensajes por usuario: 33
    Mensajes por tema: 13

    Usuarios totales 5337
    Nuestro Miembro más reciente es mitohollywood

  •  Enlace con nosotros
  • Por favor, siéntase libre de enlazar a . Utilice el siguiente código HTML:



Imagen
chuschaos

Cinefórum-Clásico es un foro de cine que utiliza las redes KAD (eMule)

Bienvenidos

Ver último mensaje Die Gespensterstunde (Urban Gad, 1917) WebRip VOSE


DIE GESPENSTERSTUNDE
(1917)


Imagen

IMDb


Producción
Saturn-Film

Director
Urban Gad

Guión
Urban Gad

Intérpretes
Carl Zickner
Viktor Senger
Hans Adalbert Schlettow
Olga Engl
Nils Olaf Chrisander
Carl Dibbern

Género
Drama


La noble familia de la Porte habita en el castillo de Medan. Después que el heredero perdido August regrese inesperadamente, la condesa Herm, suegra del hermano menor Johann, teme por la herencia de su hija. Ambas se enemistaron con los hermanos. Durante una pelea, Johann recibe un disparo por accidente. August abandona la casa para siempre, pero antes esconde sus papeles de identidad en el castillo. El hijo mayor de Johann es el próximo heredero legítimo, pero debido a su excesiva deformidad es encerrado para dejar vía libre a su hermano menor, Gert. Años más tarde, el moribundo August confiesa a su hija Agga su verdadera identidad.


Copia descargada de filmportal.de. Subtítulos obra de toerless.


Imagen
Urban Gad


Datos técnicos:
Code: Seleccionar todo

General
Complete name               : Die Gespensterstunde (Urban Gad, 1917).mp4
Format                      : MPEG-4
Format profile              : Base Media / Version 2
Codec ID                    : mp42 (mp42/mp41/isom/avc1)
File size                   : 1.04 GiB
Duration                    : 56 min 0 s
Overall bit rate            : 2 661 kb/s
Encoded date                : UTC 2013-07-30 16:51:10
Tagged date                 : UTC 2013-07-30 16:51:10

Video
ID                          : 1
Format                      : AVC
Format/Info                 : Advanced Video Codec
Format profile              : High@L3.1
Format settings, CABAC      : Yes
Format settings, RefFrames  : 4 frames
Codec ID                    : avc1
Codec ID/Info               : Advanced Video Coding
Duration                    : 56 min 0 s
Bit rate                    : 2 500 kb/s
Width                       : 1 280 pixels
Height                      : 720 pixels
Display aspect ratio        : 16:9
Frame rate mode             : Constant
Frame rate                  : 25.000 FPS
Color space                 : YUV
Chroma subsampling          : 4:2:0
Bit depth                   : 8 bits
Scan type                   : Progressive
Bits/(Pixel*Frame)          : 0.109
Stream size                 : 1 001 MiB (94%)
Writing library             : x264 core 129 r2245 bc13772
Encoding settings           : cabac=1 / ref=3 / deblock=1:0:0 / analyse=0x3:0x113 / me=hex / subme=7 / psy=1 / psy_rd=1.00:0.00 / mixed_ref=1 / me_range=16 / chroma_me=1 / trellis=1 / 8x8dct=1 / cqm=0 / deadzone=21,11 / fast_pskip=1 / chroma_qp_offset=-2 / threads=12 / lookahead_threads=2 / sliced_threads=0 / nr=0 / decimate=1 / interlaced=0 / bluray_compat=0 / constrained_intra=0 / bframes=3 / b_pyramid=2 / b_adapt=1 / b_bias=0 / direct=1 / weightb=1 / open_gop=0 / weightp=2 / keyint=75 / keyint_min=25 / scenecut=40 / intra_refresh=0 / rc_lookahead=40 / rc=2pass / mbtree=1 / bitrate=2500 / ratetol=1.0 / qcomp=0.60 / qpmin=5 / qpmax=69 / qpstep=4 / cplxblur=20.0 / qblur=0.5 / vbv_maxrate=3750 / vbv_bufsize=12500 / nal_hrd=none / ip_ratio=1.40 / aq=1:1.00
Encoded date                : UTC 2013-07-30 16:51:10
Tagged date                 : UTC 2013-07-30 16:51:10

Audio
ID                          : 2
Format                      : AAC
Format/Info                 : Advanced Audio Codec
Format profile              : LC
Codec ID                    : 40
Duration                    : 56 min 0 s
Source duration             : 56 min 0 s
Bit rate mode               : Constant
Bit rate                    : 158 kb/s
Channel(s)                  : 2 channels
Channel positions           : Front: L R
Sampling rate               : 44.1 kHz
Frame rate                  : 43.066 FPS (1024 SPF)
Compression mode            : Lossy
Stream size                 : 63.1 MiB (6%)
Source stream size          : 63.1 MiB (6%)
Encoded date                : UTC 2013-07-30 16:51:10
Tagged date                 : UTC 2013-07-30 16:51:10



Imagen
Imagen
Imagen
Imagen


ed2k://|file|Die%20Gespensterstunde%20(Urban%20Gad,%201917).mp4|1117506638|BC539F5C40930BB4B4CA9149B4EE66D3|h=H7SO5W7O46EZUZ23TRYFODPKY7P5F7MG|/

Subtítulos en español obra de toerless:
https://subscene.com/subtitles/die-gesp ... ish/963939

--------------------------------------------------------------------------------------------------------------------------------
Una copia con subtítulos también se encuentra en el canal PELICULAS MUDAS / Silent cinema:

Mira en youtube.com

Vistas: 138  •  Comentarios: 6  •  Escribir comentario [ Atras ]

  • ¿Quién está conectado?
  • Hay 7 Usuarios identificados :: 4 registrados, 0 ocultos y 3 invitados (basados en usuarios activos en los últimos 5 minutos)
    La mayor cantidad de usuarios identificados fue 91 el 25 Feb 2017, 14:04

    Usuarios registrados: Bing [Bot], DCINE, fluidoramon, hdjzgz





  •  Cinefórum-Clásico recomienda

  •  Cinefórum-Clásico recomienda

  •  Cinefórum-Clásico recomienda
  • Imagen

    Imagen

    Imagen

    Imagen

    Imagen

    Revistas de Cine por Franxesco
    (clic en cada imagen)