Beggars of Life (William A. Wellman, 1928) BDRip VOSE

Mendigos de vida

El maravilloso mundo del cine silente.
Hasta 1936 inclusive (<= 1936)

Moderador: Monsieur Lange

Estados Unidos Beggars of Life (William A. Wellman, 1928) BDRip VOSE

Notapor fifole » 12 Nov 2017, 23:33

MENDIGOS DE VIDA
(1928)


Imagen

IMDb


Producción
Paramount Famous Lasky Corporation

Director
William A. Wellman

Guión
Benjamin Glazer

Argumento
Jim Tully

Intérpretes
Wallace Beery
Louise Brooks
Richard Arlen
Bob Perry
Blue Washington
Roscoe Karns


Jim es un vagabundo que en busca de comida se encuentra con la escena del crimen del propietario de una posada. Pronto descubrirá que la asesina ha sido su ahijada Nancy a la que estaba intentando forzar. La joven huirá de la policía ayudada por el sin techo. Para ello se disfrazará de hombre y adoptará el mismo estilo de vida que él lleva.


Ripeo procedente de Rutracker.

Imagen


Sería absurdo intentar imaginar en qué se convertiría esta obra maestra sin la presencia de Louise Brooks porque ella es la película. Vestida de muchacho joven, su feminidad resplandece, desencadenando pasiones a su alrededor. Por ella, el tranquilo Jim matará sin sentir el menor remordimiento: tenía que salvar a su amada. Por ella, Oklahoma será asesinado. Por una sonrisa de Louise merece la pena hacer cualquier sacrificio.
Ado Kyrou



Imagen


Datos técnicos:
Código: Seleccionar todo
General
Complete name               : Beggars of Life.1928.BDRip 1080p.mkv
Format                      : Matroska
Format version              : Version 2
File size                   : 7.76 GiB
Duration                    : 1 h 22 min
Overall bit rate mode       : Variable
Overall bit rate            : 13.5 Mb/s
Encoded date                : UTC 2017-11-07 03:06:40
Writing application         : mkvmerge v7.5.0 ('Glass Culture') 32bit built on Jan  4 2015 16:37:25
Writing library             : libebml v1.3.1 + libmatroska v1.4.2

Video
ID                          : 1
Format                      : AVC
Format/Info                 : Advanced Video Codec
Format profile              : High@L4.1
Format settings, CABAC      : Yes
Format settings, RefFrames  : 5 frames
Codec ID                    : V_MPEG4/ISO/AVC
Duration                    : 1 h 22 min
Bit rate                    : 12.7 Mb/s
Width                       : 1 440 pixels
Height                      : 1 080 pixels
Display aspect ratio        : 4:3
Frame rate mode             : Constant
Frame rate                  : 23.976 (24000/1001) FPS
Color space                 : YUV
Chroma subsampling          : 4:2:0
Bit depth                   : 8 bits
Scan type                   : Progressive
Bits/(Pixel*Frame)          : 0.340
Stream size                 : 7.30 GiB (94%)
Writing library             : x264 core 152 r2851 ba24899
Encoding settings           : cabac=1 / ref=5 / deblock=1:-3:-3 / analyse=0x3:0x113 / me=umh / subme=8 / psy=1 / psy_rd=1.00:0.25 / mixed_ref=1 / me_range=24 / chroma_me=1 / trellis=1 / 8x8dct=1 / cqm=0 / deadzone=21,11 / fast_pskip=1 / chroma_qp_offset=-4 / threads=30 / lookahead_threads=5 / sliced_threads=0 / nr=0 / decimate=1 / interlaced=0 / bluray_compat=0 / constrained_intra=0 / bframes=3 / b_pyramid=2 / b_adapt=1 / b_bias=0 / direct=3 / weightb=1 / open_gop=0 / weightp=2 / keyint=240 / keyint_min=24 / scenecut=40 / intra_refresh=0 / rc_lookahead=50 / rc=2pass / mbtree=1 / bitrate=12684 / ratetol=1.0 / qcomp=0.60 / qpmin=0 / qpmax=69 / qpstep=4 / cplxblur=20.0 / qblur=0.5 / ip_ratio=1.40 / aq=1:0.75
Language                    : English
Default                     : Yes
Forced                      : No

Audio #1
ID                          : 2
Format                      : AC-3
Format/Info                 : Audio Coding 3
Format settings, Endianness : Big
Codec ID                    : A_AC3
Duration                    : 1 h 22 min
Bit rate mode               : Constant
Bit rate                    : 192 kb/s
Channel(s)                  : 2 channels
Channel positions           : Front: L R
Sampling rate               : 48.0 kHz
Frame rate                  : 31.250 FPS (1536 SPF)
Bit depth                   : 16 bits
Compression mode            : Lossy
Stream size                 : 113 MiB (1%)
Language                    : English
Service kind                : Complete Main
Default                     : Yes
Forced                      : No

Audio #2
ID                          : 3
Format                      : FLAC
Format/Info                 : Free Lossless Audio Codec
Codec ID                    : A_FLAC
Duration                    : 1 h 22 min
Bit rate mode               : Variable
Bit rate                    : 602 kb/s
Channel(s)                  : 2 channels
Channel positions           : Front: L R
Sampling rate               : 48.0 kHz
Frame rate                  : 11.719 FPS (4096 SPF)
Bit depth                   : 16 bits
Stream size                 : 355 MiB (4%)
Writing library             : libFLAC 1.2.1 (UTC 2007-09-17)
Language                    : English
Default                     : No
Forced                      : No

Text
ID                          : 4
Format                      : UTF-8
Codec ID                    : S_TEXT/UTF8
Codec ID/Info               : UTF-8 Plain Text
Duration                    : 1 h 21 min
Bit rate                    : 25 b/s
Count of elements           : 173
Stream size                 : 15.1 KiB (0%)
Language                    : Russian
Default                     : Yes
Forced                      : No

Menu
00:00:00.000                : en:00:00:00.000
00:07:38.917                : en:00:07:38.917
00:15:22.755                : en:00:15:22.755
00:27:16.176                : en:00:27:16.176
00:39:46.426                : en:00:39:46.426
00:47:51.577                : en:00:47:51.577
00:58:27.504                : en:00:58:27.504
01:04:59.687                : en:01:04:59.687
01:13:29.530                : en:01:13:29.530
01:17:28.185                : en:01:17:28.185



Imagen
Imagen
Imagen
Imagen
Imagen


eD2K link Beggars of Life.1928.BDRip 1080p.mkv [7.76 Gb] 

Subtítulos en español obra de satantango resincronizados por luislobo:
https://www.subdivx.com/X6XNTE4Mzk0X-be ... -1928.html
Avatar de Usuario
fifole
 
Mensajes: 2971
Temas: 529
Registrado: 17 Oct 2012, 19:47

Re: Beggars of Life (William A. Wellman, 1928) BDRip VOSE

Notapor james mason » 13 Nov 2017, 01:23

Muchas gracias Fifole, Luislobo. :aplauso: :aplauso:

Un saludo :hi:
james mason
 
Mensajes: 790
Temas: 12
Registrado: 03 Oct 2012, 10:31
Ubicación: En algún lugar de Extremadura

Re: Beggars of Life (William A. Wellman, 1928) BDRip VOSE

Notapor ciberyago » 13 Nov 2017, 04:53

Muchas gracias!
ciberyago
 
Mensajes: 1805
Temas: 3
Registrado: 20 Oct 2012, 06:26

Re: Beggars of Life (William A. Wellman, 1928) BDRip VOSE

Notapor cabezuelo » 13 Nov 2017, 09:11

muchas gracias por la pelicula mi deseo seria que bajase con fluidez pues el tamaño es grande haber si tenemos suerte y hay muchas semillas gracias y un saludo vale
cabezuelo
 
Mensajes: 102
Registrado: 20 May 2015, 10:43

Re: Beggars of Life (William A. Wellman, 1928) BDRip VOSE

Notapor albie1001 » 13 Nov 2017, 12:04

"Wild Bill: Hollywood Maverick"
https://www.youtube.com/watch?v=bbJixsR ... 7HkgKr6jlz

Wellman's story, as good as his movies.
albie1001
 
Mensajes: 57
Registrado: 03 Ene 2013, 10:21

Re: Beggars of Life (William A. Wellman, 1928) BDRip VOSE

Notapor papillon » 13 Nov 2017, 18:33

Buena película, por fin en una copia decente.

Gracias por compartir.
Avatar de Usuario
papillon
 
Mensajes: 193
Temas: 3
Registrado: 17 May 2017, 16:14

Re: Beggars of Life (William A. Wellman, 1928) BDRip VOSE

Notapor yojimbo » 14 Nov 2017, 13:18

Muchas gracias, fifole, satantango y luislobo.
Avatar de Usuario
yojimbo
 
Mensajes: 6649
Temas: 17
Registrado: 18 Oct 2012, 13:25

Re: Beggars of Life (William A. Wellman, 1928) BDRip VOSE

Notapor mifune » 15 Nov 2017, 00:38

Completada y compartiendo, gracias, fifole.
Cine, cine, cine. Más cine, por favor...
Avatar de Usuario
mifune
 
Mensajes: 5681
Temas: 783
Registrado: 02 Oct 2012, 19:48
Ubicación: Welcome to the Jungle

Re: Beggars of Life (William A. Wellman, 1928) BDRip VOSE

Notapor asung » 15 Nov 2017, 21:54

Muchas gracias fifole, satantango y luislobo, me la llevo al Galeón
asung
 
Mensajes: 567
Registrado: 16 Oct 2012, 20:57

Re: Beggars of Life (William A. Wellman, 1928) BDRip VOSE

Notapor Jon Olarticoetxea » 15 Nov 2017, 22:32

Buena copia, gracias, fifole.
"Urz-aphal ba-dügü herrian tristerik. Nigarrez ari düzü kaloian barnetik, bere lagün maitiaz beit'izan ützirik: Kuntsola ezazie, ziek, adixkidik. Ene bihotza zaizü bizikoz egonen: Behar zütüt ützi lotsaz etxekuen"

Extahun (Pierre Topet)
Avatar de Usuario
Jon Olarticoetxea
 
Mensajes: 136
Temas: 1
Registrado: 18 Jun 2014, 19:14

Siguiente

Volver a Cine Mudo

¿Quién está conectado?

Usuarios navegando por este Foro: No hay usuarios registrados visitando el Foro y 1 invitado