The Red Kimona (Walter Lang, 1925) DVDRip VOSE

El maravilloso mundo del cine silente.
Hasta 1936 inclusive (<= 1936)

Moderador: Monsieur Lange

Estados Unidos The Red Kimona (Walter Lang, 1925) DVDRip VOSE

Notapor fifole » 08 Ene 2018, 17:06

THE RED KIMONA
(1925)


Imagen

IMDb


Producción
Mrs. Wallace Reid Productions
(Dorothy Davenport)

Director
Walter Lang

Guión
Dorothy Arzner
Malcolm Stuart Boylan

Argumento
Adela Rogers St. Johns

Intérpretes
Priscilla Bonner
Nellie Bly Baker
Carl Miller
Theodore von Eltz
Tyrone Power Sr.
Virginia Pearson
George Siegman
Mary Carr


La historia comienza con una chica ingenua de pueblo, Gabrielle Darley, quien trata de escapar de su vida en el hogar cruel en los brazos de un apuesto extraño, Howard Blaine, que promete casarse con ella en Nueva Orleans. Pronto Gabrielle se encuentra a sí misma trabajando como prostituta en Nueva Orleans y se aferra a la creencia de que Howard realmente la ama. (FILMAFFINITY)


Copia descargada de Rutracker. He sincronizado a este ripeo los subtítulos de Fede1921.


Imagen


(...) historia moralizante más ridícula que emocionante de una joven prostituta, contra su voluntad, y de sus esfuerzos por redimirse tras un asesinato, del que es absuelta. Película de mujeres, escrita por Dorothy Arzner basándose en una idea de Adela Rogers St. Johns, Red Kimono fue producida por "Mrs. Wallace Reid", viuda del actor fallecido en 1922, quien tenía también en el filme un papel. Por lo demás, el tema de la redención de la heroína es frecuente en la producción de Lang de este período.
Bertrand Tavernier & Jean-Pierre Coursodon.



Datos técnicos:
Código: Seleccionar todo
General
Complete name               : The Red Kimona (1925) DVDRip.avi
Format                      : AVI
Format/Info                 : Audio Video Interleave
File size                   : 1.09 GiB
Duration                    : 1 h 17 min
Overall bit rate            : 2 032 kb/s
Writing application         : VirtualDubMod 1.5.4.1 (build 2178/release)
Writing library             : VirtualDubMod build 2178/release

Video
ID                          : 0
Format                      : MPEG-4 Visual
Format profile              : Advanced Simple@L5
Format settings, BVOP       : 1
Format settings, QPel       : No
Format settings, GMC        : No warppoints
Format settings, Matrix     : Custom
Codec ID                    : XVID
Codec ID/Hint               : XviD
Duration                    : 1 h 17 min
Bit rate                    : 1 895 kb/s
Width                       : 576 pixels
Height                      : 432 pixels
Display aspect ratio        : 4:3
Frame rate                  : 29.970 (30000/1001) FPS
Color space                 : YUV
Chroma subsampling          : 4:2:0
Bit depth                   : 8 bits
Scan type                   : Progressive
Compression mode            : Lossy
Bits/(Pixel*Frame)          : 0.254
Stream size                 : 1.02 GiB (93%)
Writing library             : XviD 64

Audio
ID                          : 1
Format                      : MPEG Audio
Format version              : Version 1
Format profile              : Layer 3
Mode                        : Joint stereo
Mode extension              : MS Stereo
Codec ID                    : 55
Codec ID/Hint               : MP3
Duration                    : 1 h 17 min
Bit rate mode               : Constant
Bit rate                    : 128 kb/s
Channel(s)                  : 2 channels
Sampling rate               : 48.0 kHz
Compression mode            : Lossy
Stream size                 : 70.6 MiB (6%)
Alignment                   : Aligned on interleaves
Interleave, duration        : 67  ms (2.00 video frames)
Interleave, preload duratio : 504  ms
Writing library             : LAME3.98r
Encoding settings           : -m j -V 4 -q 2 -lowpass 17 -b 128
Language                    : English



Imagen
Imagen
Imagen
Imagen
Imagen


eD2K link The Red Kimona (1925) DVDRip.avi [1.09 Gb] 

Subtítulos en español:
https://mega.nz/#!gmREXLIA!JK0sH12hwiLF ... c3OYX-3CxQ
Avatar de Usuario
fifole
 
Mensajes: 3053
Temas: 559
Registrado: 17 Oct 2012, 18:47

Re: The Red Kimona (Walter Lang, 1925) DVDRip VOSE

Notapor Prudencio » 08 Ene 2018, 17:16

Muchas gracias, fifole y Fede1921. :hi:
Avatar de Usuario
Prudencio
 
Mensajes: 3051
Temas: 5
Registrado: 16 Oct 2012, 16:46

Re: The Red Kimona (Walter Lang, 1925) DVDRip VOSE

Notapor jail » 08 Ene 2018, 18:24

Gracias, fifole, Fede1921 y a la gente de Rutracker.
jail
 
Mensajes: 4164
Temas: 6
Registrado: 18 Oct 2012, 13:34

Re: The Red Kimona (Walter Lang, 1925) DVDRip VOSE

Notapor Angeluco » 09 Ene 2018, 20:49

jail escribió:Gracias, fifole, Fede1921 y a la gente de Rutracker.


Muchas gracias a todo el mundo.
Angeluco
 
Mensajes: 844
Temas: 1
Registrado: 25 Nov 2012, 11:41

Re: The Red Kimona (Walter Lang, 1925) DVDRip VOSE

Notapor yojimbo » 09 Ene 2018, 20:58

Muchas gracias, fifole y Fede1921.
Avatar de Usuario
yojimbo
 
Mensajes: 6798
Temas: 17
Registrado: 18 Oct 2012, 12:25

Re: The Red Kimona (Walter Lang, 1925) DVDRip VOSE

Notapor sete » 10 Ene 2018, 14:56

Muchas gracias, fifole y Fede1921.
:hi:
Este mundo está traicionando a la vida.
José Luis Sampedro
Avatar de Usuario
sete
 
Mensajes: 2507
Registrado: 22 Dic 2012, 15:10

Re: The Red Kimona (Walter Lang, 1925) DVDRip VOSE

Notapor Graveland » 13 Ene 2018, 14:39

Muchas gracias, fifole & Fede1921.
Avatar de Usuario
Graveland
 
Mensajes: 2160
Temas: 291
Registrado: 22 Nov 2012, 14:30


Volver a Cine Mudo

¿Quién está conectado?

Usuarios navegando por este Foro: No hay usuarios registrados visitando el Foro y 1 invitado