Tih Minh (Louis Feuillade, 1918) WEBRip VOSE

El maravilloso mundo del cine silente.
Hasta 1936 inclusive (<= 1936)

Moderador: Monsieur Lange

Francia Tih Minh (Louis Feuillade, 1918) WEBRip VOSE

Notapor Lobo López » 27 Jun 2016, 20:52

TIH MINH

Imagen
Imagen
Imagen

Título original: Tih Minh
Director: Louis Feuillade
Guion: Louis Feuillade
Reparto: Mary Harald, René Cresté, Georges Biscot, Édouard Mathé, Louis Leubas, Gaston Michel, Marcel Marquet
Fotografía: Léon Klausse
Año: 1918
País: Francia
Duración: 418 min.
Producción: Gaumont
------------------------------------------------------------------------------------------------------------------------------

Argumento: Después de un largo viaje por Indochina, el explorador Jacques d'Athys vuelve a su casa de Niza acompañado por Tih-Minh, una joven mestiza a la que salvó la vida y por su fiel servidor Placide. La joven asiática completa su educación con ayuda de la madre y la hermana de d’Athys y pronto se enamora del explorador. Sin embargo, d’Athys está en posesión de un libro que adquirió en su viaje y que contiene un documento encriptado muy importante, lo que alimenta la codicia de varios espías que están desesperados por robarlo. Jacques y su séquito deberán salvar todo tipo de peligros.

------------------------------------------------------------------------------------------------------------------------------

ImagenImagen
ImagenImagen
ImagenImagen
ImagenImagen
ImagenImagen
ImagenImagen
ImagenImagen
------------------------------------------------------------------------------------------------------------------------------

EPISODIO 1

Datos Técnicos:
Spoiler:
Format : Matroska
Format version : Version 2
File size : 286 MiB
Duration : 42mn 42s
Overall bit rate : 935 Kbps
Writing application : Lavf54.63.104
Writing library : Lavf54.63.104

Video
ID : 1
Format : AVC
Format/Info : Advanced Video Codec
Format profile : High@L3.0
Format settings, CABAC : Yes
Format settings, ReFrames : 4 frames
Codec ID : V_MPEG4/ISO/AVC
Duration : 42mn 42s
Bit rate : 916 Kbps
Width : 640 pixels
Height : 486 pixels
Display aspect ratio : 4:3
Frame rate mode : Constant
Frame rate : 25.000 fps
Color space : YUV
Chroma subsampling : 4:2:0
Bit depth : 8 bits
Scan type : Progressive
Bits/(Pixel*Frame) : 0.118
Stream size : 280 MiB (98%)
Writing library : x264 core 128
Encoding settings : cabac=1 / ref=3 / deblock=1:0:0 / analyse=0x3:0x133 / me=hex / subme=7 / psy=1 / psy_rd=1.00:0.00 / mixed_ref=1 / me_range=16 / chroma_me=1 / trellis=1 / 8x8dct=1 / cqm=0 / deadzone=21,11 / fast_pskip=1 / chroma_qp_offset=-2 / threads=12 / lookahead_threads=2 / sliced_threads=0 / nr=0 / decimate=1 / interlaced=0 / bluray_compat=0 / constrained_intra=0 / bframes=3 / b_pyramid=2 / b_adapt=1 / b_bias=0 / direct=1 / weightb=1 / open_gop=0 / weightp=2 / keyint=250 / keyint_min=25 / scenecut=40 / intra_refresh=0 / rc_lookahead=40 / rc=crf / mbtree=1 / crf=20.0 / qcomp=0.60 / qpmin=10 / qpmax=51 / qpstep=4 / ip_ratio=1.40 / aq=1:1.00
Default : Yes
Forced : No


:flecha: eD2K link Tih Minh (Louis Feuillade, 1918) (1).mkv [285.54 Mb] 

------------------------------------------------------------------------------------------------------------------------------

EPISODIO 2

Datos Técnicos:
Spoiler:
Format : Matroska
Format version : Version 2
File size : 174 MiB
Duration : 26mn 22s
Overall bit rate : 921 Kbps
Writing application : Lavf54.63.104
Writing library : Lavf54.63.104

Video
ID : 1
Format : AVC
Format/Info : Advanced Video Codec
Format profile : High@L3.0
Format settings, CABAC : Yes
Format settings, ReFrames : 4 frames
Codec ID : V_MPEG4/ISO/AVC
Duration : 26mn 22s
Bit rate : 902 Kbps
Width : 640 pixels
Height : 486 pixels
Display aspect ratio : 4:3
Frame rate mode : Constant
Frame rate : 25.000 fps
Color space : YUV
Chroma subsampling : 4:2:0
Bit depth : 8 bits
Scan type : Progressive
Bits/(Pixel*Frame) : 0.116
Stream size : 170 MiB (98%)
Writing library : x264 core 128
Encoding settings : cabac=1 / ref=3 / deblock=1:0:0 / analyse=0x3:0x133 / me=hex / subme=7 / psy=1 / psy_rd=1.00:0.00 / mixed_ref=1 / me_range=16 / chroma_me=1 / trellis=1 / 8x8dct=1 / cqm=0 / deadzone=21,11 / fast_pskip=1 / chroma_qp_offset=-2 / threads=12 / lookahead_threads=2 / sliced_threads=0 / nr=0 / decimate=1 / interlaced=0 / bluray_compat=0 / constrained_intra=0 / bframes=3 / b_pyramid=2 / b_adapt=1 / b_bias=0 / direct=1 / weightb=1 / open_gop=0 / weightp=2 / keyint=250 / keyint_min=25 / scenecut=40 / intra_refresh=0 / rc_lookahead=40 / rc=crf / mbtree=1 / crf=20.0 / qcomp=0.60 / qpmin=10 / qpmax=51 / qpstep=4 / ip_ratio=1.40 / aq=1:1.00
Default : Yes
Forced : No


:flecha: eD2K link Tih Minh (Louis Feuillade, 1918) (2).mkv [173.70 Mb] 

------------------------------------------------------------------------------------------------------------------------------

EPISODIO 3

Datos Técnicos:
Spoiler:
Format : Matroska
Format version : Version 2
File size : 241 MiB
Duration : 32mn 32s
Overall bit rate : 1 037 Kbps
Writing application : Lavf54.63.104
Writing library : Lavf54.63.104

Video
ID : 1
Format : AVC
Format/Info : Advanced Video Codec
Format profile : High@L3.0
Format settings, CABAC : Yes
Format settings, ReFrames : 4 frames
Codec ID : V_MPEG4/ISO/AVC
Duration : 32mn 32s
Bit rate : 1 016 Kbps
Width : 640 pixels
Height : 486 pixels
Display aspect ratio : 4:3
Frame rate mode : Constant
Frame rate : 25.000 fps
Color space : YUV
Chroma subsampling : 4:2:0
Bit depth : 8 bits
Scan type : Progressive
Bits/(Pixel*Frame) : 0.131
Stream size : 237 MiB (98%)
Writing library : x264 core 128
Encoding settings : cabac=1 / ref=3 / deblock=1:0:0 / analyse=0x3:0x133 / me=hex / subme=7 / psy=1 / psy_rd=1.00:0.00 / mixed_ref=1 / me_range=16 / chroma_me=1 / trellis=1 / 8x8dct=1 / cqm=0 / deadzone=21,11 / fast_pskip=1 / chroma_qp_offset=-2 / threads=12 / lookahead_threads=2 / sliced_threads=0 / nr=0 / decimate=1 / interlaced=0 / bluray_compat=0 / constrained_intra=0 / bframes=3 / b_pyramid=2 / b_adapt=1 / b_bias=0 / direct=1 / weightb=1 / open_gop=0 / weightp=2 / keyint=250 / keyint_min=25 / scenecut=40 / intra_refresh=0 / rc_lookahead=40 / rc=crf / mbtree=1 / crf=20.0 / qcomp=0.60 / qpmin=10 / qpmax=51 / qpstep=4 / ip_ratio=1.40 / aq=1:1.00
Default : Yes
Forced : No


:flecha: eD2K link Tih Minh (Louis Feuillade, 1918) (3).mkv [241.32 Mb] 

------------------------------------------------------------------------------------------------------------------------------

EPISODIO 4

Datos Técnicos:
Spoiler:
Format : Matroska
Format version : Version 2
File size : 187 MiB
Duration : 26mn 17s
Overall bit rate : 996 Kbps
Writing application : Lavf54.63.104
Writing library : Lavf54.63.104

Video
ID : 1
Format : AVC
Format/Info : Advanced Video Codec
Format profile : High@L3.0
Format settings, CABAC : Yes
Format settings, ReFrames : 4 frames
Codec ID : V_MPEG4/ISO/AVC
Duration : 26mn 17s
Bit rate : 976 Kbps
Width : 640 pixels
Height : 486 pixels
Display aspect ratio : 4:3
Frame rate mode : Constant
Frame rate : 25.000 fps
Color space : YUV
Chroma subsampling : 4:2:0
Bit depth : 8 bits
Scan type : Progressive
Bits/(Pixel*Frame) : 0.126
Stream size : 184 MiB (98%)
Writing library : x264 core 128
Encoding settings : cabac=1 / ref=3 / deblock=1:0:0 / analyse=0x3:0x133 / me=hex / subme=7 / psy=1 / psy_rd=1.00:0.00 / mixed_ref=1 / me_range=16 / chroma_me=1 / trellis=1 / 8x8dct=1 / cqm=0 / deadzone=21,11 / fast_pskip=1 / chroma_qp_offset=-2 / threads=12 / lookahead_threads=2 / sliced_threads=0 / nr=0 / decimate=1 / interlaced=0 / bluray_compat=0 / constrained_intra=0 / bframes=3 / b_pyramid=2 / b_adapt=1 / b_bias=0 / direct=1 / weightb=1 / open_gop=0 / weightp=2 / keyint=250 / keyint_min=25 / scenecut=40 / intra_refresh=0 / rc_lookahead=40 / rc=crf / mbtree=1 / crf=20.0 / qcomp=0.60 / qpmin=10 / qpmax=51 / qpstep=4 / ip_ratio=1.40 / aq=1:1.00
Default : Yes
Forced : No


:flecha: eD2K link Tih Minh (Louis Feuillade, 1918) (4).mkv [187.37 Mb] 

------------------------------------------------------------------------------------------------------------------------------

EPISODIO 5

Datos Técnicos:
Spoiler:
Format : Matroska
Format version : Version 2
File size : 150 MiB
Duration : 23mn 53s
Overall bit rate : 878 Kbps
Writing application : Lavf54.63.104
Writing library : Lavf54.63.104

Video
ID : 1
Format : AVC
Format/Info : Advanced Video Codec
Format profile : High@L3.0
Format settings, CABAC : Yes
Format settings, ReFrames : 4 frames
Codec ID : V_MPEG4/ISO/AVC
Duration : 23mn 53s
Bit rate : 861 Kbps
Width : 640 pixels
Height : 486 pixels
Display aspect ratio : 4:3
Frame rate mode : Constant
Frame rate : 25.000 fps
Color space : YUV
Chroma subsampling : 4:2:0
Bit depth : 8 bits
Scan type : Progressive
Bits/(Pixel*Frame) : 0.111
Stream size : 147 MiB (98%)
Writing library : x264 core 128
Encoding settings : cabac=1 / ref=3 / deblock=1:0:0 / analyse=0x3:0x133 / me=hex / subme=7 / psy=1 / psy_rd=1.00:0.00 / mixed_ref=1 / me_range=16 / chroma_me=1 / trellis=1 / 8x8dct=1 / cqm=0 / deadzone=21,11 / fast_pskip=1 / chroma_qp_offset=-2 / threads=12 / lookahead_threads=2 / sliced_threads=0 / nr=0 / decimate=1 / interlaced=0 / bluray_compat=0 / constrained_intra=0 / bframes=3 / b_pyramid=2 / b_adapt=1 / b_bias=0 / direct=1 / weightb=1 / open_gop=0 / weightp=2 / keyint=250 / keyint_min=25 / scenecut=40 / intra_refresh=0 / rc_lookahead=40 / rc=crf / mbtree=1 / crf=20.0 / qcomp=0.60 / qpmin=10 / qpmax=51 / qpstep=4 / ip_ratio=1.40 / aq=1:1.00
Default : Yes
Forced : No


:flecha: eD2K link Tih Minh (Louis Feuillade, 1918) (5).mkv [150.13 Mb] 

------------------------------------------------------------------------------------------------------------------------------

EPISODIO 6

Datos Técnicos:
Spoiler:
Format : Matroska
Format version : Version 2
File size : 184 MiB
Duration : 27mn 7s
Overall bit rate : 950 Kbps
Writing application : Lavf54.63.104
Writing library : Lavf54.63.104

Video
ID : 1
Format : AVC
Format/Info : Advanced Video Codec
Format profile : High@L3.0
Format settings, CABAC : Yes
Format settings, ReFrames : 4 frames
Codec ID : V_MPEG4/ISO/AVC
Duration : 27mn 7s
Bit rate : 931 Kbps
Width : 640 pixels
Height : 486 pixels
Display aspect ratio : 4:3
Frame rate mode : Constant
Frame rate : 25.000 fps
Color space : YUV
Chroma subsampling : 4:2:0
Bit depth : 8 bits
Scan type : Progressive
Bits/(Pixel*Frame) : 0.120
Stream size : 181 MiB (98%)
Writing library : x264 core 128
Encoding settings : cabac=1 / ref=3 / deblock=1:0:0 / analyse=0x3:0x133 / me=hex / subme=7 / psy=1 / psy_rd=1.00:0.00 / mixed_ref=1 / me_range=16 / chroma_me=1 / trellis=1 / 8x8dct=1 / cqm=0 / deadzone=21,11 / fast_pskip=1 / chroma_qp_offset=-2 / threads=12 / lookahead_threads=2 / sliced_threads=0 / nr=0 / decimate=1 / interlaced=0 / bluray_compat=0 / constrained_intra=0 / bframes=3 / b_pyramid=2 / b_adapt=1 / b_bias=0 / direct=1 / weightb=1 / open_gop=0 / weightp=2 / keyint=250 / keyint_min=25 / scenecut=40 / intra_refresh=0 / rc_lookahead=40 / rc=crf / mbtree=1 / crf=20.0 / qcomp=0.60 / qpmin=10 / qpmax=51 / qpstep=4 / ip_ratio=1.40 / aq=1:1.00
Default : Yes
Forced : No


:flecha: eD2K link Tih Minh (Louis Feuillade, 1918) (6).mkv [184.26 Mb] 

------------------------------------------------------------------------------------------------------------------------------

EPISODIO 7

Datos Técnicos:
Spoiler:
Format : Matroska
Format version : Version 2
File size : 150 MiB
Duration : 23mn 53s
Overall bit rate : 880 Kbps
Writing application : Lavf54.63.104
Writing library : Lavf54.63.104

Video
ID : 1
Format : AVC
Format/Info : Advanced Video Codec
Format profile : High@L3.0
Format settings, CABAC : Yes
Format settings, ReFrames : 4 frames
Codec ID : V_MPEG4/ISO/AVC
Duration : 23mn 53s
Bit rate : 862 Kbps
Width : 640 pixels
Height : 486 pixels
Display aspect ratio : 4:3
Frame rate mode : Constant
Frame rate : 25.000 fps
Color space : YUV
Chroma subsampling : 4:2:0
Bit depth : 8 bits
Scan type : Progressive
Bits/(Pixel*Frame) : 0.111
Stream size : 147 MiB (98%)
Writing library : x264 core 128
Encoding settings : cabac=1 / ref=3 / deblock=1:0:0 / analyse=0x3:0x133 / me=hex / subme=7 / psy=1 / psy_rd=1.00:0.00 / mixed_ref=1 / me_range=16 / chroma_me=1 / trellis=1 / 8x8dct=1 / cqm=0 / deadzone=21,11 / fast_pskip=1 / chroma_qp_offset=-2 / threads=12 / lookahead_threads=2 / sliced_threads=0 / nr=0 / decimate=1 / interlaced=0 / bluray_compat=0 / constrained_intra=0 / bframes=3 / b_pyramid=2 / b_adapt=1 / b_bias=0 / direct=1 / weightb=1 / open_gop=0 / weightp=2 / keyint=250 / keyint_min=25 / scenecut=40 / intra_refresh=0 / rc_lookahead=40 / rc=crf / mbtree=1 / crf=20.0 / qcomp=0.60 / qpmin=10 / qpmax=51 / qpstep=4 / ip_ratio=1.40 / aq=1:1.00
Default : Yes
Forced : No


:flecha: eD2K link Tih Minh (Louis Feuillade, 1918) (7).mkv [150.36 Mb] 

------------------------------------------------------------------------------------------------------------------------------

EPISODIO 8

Datos Técnicos:
Spoiler:
Format : Matroska
Format version : Version 2
File size : 174 MiB
Duration : 24mn 59s
Overall bit rate : 975 Kbps
Writing application : Lavf54.63.104
Writing library : Lavf54.63.104

Video
ID : 1
Format : AVC
Format/Info : Advanced Video Codec
Format profile : High@L3.0
Format settings, CABAC : Yes
Format settings, ReFrames : 4 frames
Codec ID : V_MPEG4/ISO/AVC
Duration : 24mn 59s
Bit rate : 956 Kbps
Width : 640 pixels
Height : 486 pixels
Display aspect ratio : 4:3
Frame rate mode : Constant
Frame rate : 25.000 fps
Color space : YUV
Chroma subsampling : 4:2:0
Bit depth : 8 bits
Scan type : Progressive
Bits/(Pixel*Frame) : 0.123
Stream size : 171 MiB (98%)
Writing library : x264 core 128
Encoding settings : cabac=1 / ref=3 / deblock=1:0:0 / analyse=0x3:0x133 / me=hex / subme=7 / psy=1 / psy_rd=1.00:0.00 / mixed_ref=1 / me_range=16 / chroma_me=1 / trellis=1 / 8x8dct=1 / cqm=0 / deadzone=21,11 / fast_pskip=1 / chroma_qp_offset=-2 / threads=12 / lookahead_threads=2 / sliced_threads=0 / nr=0 / decimate=1 / interlaced=0 / bluray_compat=0 / constrained_intra=0 / bframes=3 / b_pyramid=2 / b_adapt=1 / b_bias=0 / direct=1 / weightb=1 / open_gop=0 / weightp=2 / keyint=250 / keyint_min=25 / scenecut=40 / intra_refresh=0 / rc_lookahead=40 / rc=crf / mbtree=1 / crf=20.0 / qcomp=0.60 / qpmin=10 / qpmax=51 / qpstep=4 / ip_ratio=1.40 / aq=1:1.00
Default : Yes
Forced : No


:flecha: eD2K link Tih Minh (Louis Feuillade, 1918) (8).mkv [174.32 Mb] 

------------------------------------------------------------------------------------------------------------------------------

EPISODIO 9

Datos Técnicos:
Spoiler:
Format : Matroska
Format version : Version 2
File size : 187 MiB
Duration : 26mn 7s
Overall bit rate : 998 Kbps
Writing application : Lavf54.63.104
Writing library : Lavf54.63.104

Video
ID : 1
Format : AVC
Format/Info : Advanced Video Codec
Format profile : High@L3.0
Format settings, CABAC : Yes
Format settings, ReFrames : 4 frames
Codec ID : V_MPEG4/ISO/AVC
Duration : 26mn 7s
Bit rate : 978 Kbps
Width : 640 pixels
Height : 486 pixels
Display aspect ratio : 4:3
Frame rate mode : Constant
Frame rate : 25.000 fps
Color space : YUV
Chroma subsampling : 4:2:0
Bit depth : 8 bits
Scan type : Progressive
Bits/(Pixel*Frame) : 0.126
Stream size : 183 MiB (98%)
Writing library : x264 core 128
Encoding settings : cabac=1 / ref=3 / deblock=1:0:0 / analyse=0x3:0x133 / me=hex / subme=7 / psy=1 / psy_rd=1.00:0.00 / mixed_ref=1 / me_range=16 / chroma_me=1 / trellis=1 / 8x8dct=1 / cqm=0 / deadzone=21,11 / fast_pskip=1 / chroma_qp_offset=-2 / threads=12 / lookahead_threads=2 / sliced_threads=0 / nr=0 / decimate=1 / interlaced=0 / bluray_compat=0 / constrained_intra=0 / bframes=3 / b_pyramid=2 / b_adapt=1 / b_bias=0 / direct=1 / weightb=1 / open_gop=0 / weightp=2 / keyint=250 / keyint_min=25 / scenecut=40 / intra_refresh=0 / rc_lookahead=40 / rc=crf / mbtree=1 / crf=20.0 / qcomp=0.60 / qpmin=10 / qpmax=51 / qpstep=4 / ip_ratio=1.40 / aq=1:1.00
Default : Yes
Forced : No


:flecha: eD2K link Tih Minh (Louis Feuillade, 1918) (9).mkv [186.51 Mb] 

------------------------------------------------------------------------------------------------------------------------------

EPISODIO 10

Datos Técnicos:
Spoiler:
Format : Matroska
Format version : Version 2
File size : 224 MiB
Duration : 31mn 59s
Overall bit rate : 979 Kbps
Writing application : Lavf54.63.104
Writing library : Lavf54.63.104

Video
ID : 1
Format : AVC
Format/Info : Advanced Video Codec
Format profile : High@L3.0
Format settings, CABAC : Yes
Format settings, ReFrames : 4 frames
Codec ID : V_MPEG4/ISO/AVC
Duration : 31mn 59s
Bit rate : 959 Kbps
Width : 640 pixels
Height : 486 pixels
Display aspect ratio : 4:3
Frame rate mode : Constant
Frame rate : 25.000 fps
Color space : YUV
Chroma subsampling : 4:2:0
Bit depth : 8 bits
Scan type : Progressive
Bits/(Pixel*Frame) : 0.123
Stream size : 220 MiB (98%)
Writing library : x264 core 128
Encoding settings : cabac=1 / ref=3 / deblock=1:0:0 / analyse=0x3:0x133 / me=hex / subme=7 / psy=1 / psy_rd=1.00:0.00 / mixed_ref=1 / me_range=16 / chroma_me=1 / trellis=1 / 8x8dct=1 / cqm=0 / deadzone=21,11 / fast_pskip=1 / chroma_qp_offset=-2 / threads=12 / lookahead_threads=2 / sliced_threads=0 / nr=0 / decimate=1 / interlaced=0 / bluray_compat=0 / constrained_intra=0 / bframes=3 / b_pyramid=2 / b_adapt=1 / b_bias=0 / direct=1 / weightb=1 / open_gop=0 / weightp=2 / keyint=250 / keyint_min=25 / scenecut=40 / intra_refresh=0 / rc_lookahead=40 / rc=crf / mbtree=1 / crf=20.0 / qcomp=0.60 / qpmin=10 / qpmax=51 / qpstep=4 / ip_ratio=1.40 / aq=1:1.00
Default : Yes
Forced : No


:flecha: eD2K link Tih Minh (Louis Feuillade, 1918) (10).mkv [224.04 Mb] 

------------------------------------------------------------------------------------------------------------------------------

EPISODIO 11

Datos Técnicos:
Spoiler:
Format : Matroska
Format version : Version 2
File size : 186 MiB
Duration : 27mn 19s
Overall bit rate : 950 Kbps
Writing application : Lavf54.63.104
Writing library : Lavf54.63.104

Video
ID : 1
Format : AVC
Format/Info : Advanced Video Codec
Format profile : High@L3.0
Format settings, CABAC : Yes
Format settings, ReFrames : 4 frames
Codec ID : V_MPEG4/ISO/AVC
Duration : 27mn 19s
Bit rate : 931 Kbps
Width : 640 pixels
Height : 486 pixels
Display aspect ratio : 4:3
Frame rate mode : Constant
Frame rate : 25.000 fps
Color space : YUV
Chroma subsampling : 4:2:0
Bit depth : 8 bits
Scan type : Progressive
Bits/(Pixel*Frame) : 0.120
Stream size : 182 MiB (98%)
Writing library : x264 core 128
Encoding settings : cabac=1 / ref=3 / deblock=1:0:0 / analyse=0x3:0x133 / me=hex / subme=7 / psy=1 / psy_rd=1.00:0.00 / mixed_ref=1 / me_range=16 / chroma_me=1 / trellis=1 / 8x8dct=1 / cqm=0 / deadzone=21,11 / fast_pskip=1 / chroma_qp_offset=-2 / threads=12 / lookahead_threads=2 / sliced_threads=0 / nr=0 / decimate=1 / interlaced=0 / bluray_compat=0 / constrained_intra=0 / bframes=3 / b_pyramid=2 / b_adapt=1 / b_bias=0 / direct=1 / weightb=1 / open_gop=0 / weightp=2 / keyint=250 / keyint_min=25 / scenecut=40 / intra_refresh=0 / rc_lookahead=40 / rc=crf / mbtree=1 / crf=20.0 / qcomp=0.60 / qpmin=10 / qpmax=51 / qpstep=4 / ip_ratio=1.40 / aq=1:1.00
Default : Yes


:flecha: eD2K link Tih Minh (Louis Feuillade, 1918) (11).mkv [185.58 Mb] 

------------------------------------------------------------------------------------------------------------------------------

EPISODIO 12

Datos Técnicos:
Spoiler:
Format : Matroska
Format version : Version 2
File size : 216 MiB
Duration : 28mn 56s
Overall bit rate : 1 042 Kbps
Writing application : Lavf54.63.104
Writing library : Lavf54.63.104

Video
ID : 1
Format : AVC
Format/Info : Advanced Video Codec
Format profile : High@L3.0
Format settings, CABAC : Yes
Format settings, ReFrames : 4 frames
Codec ID : V_MPEG4/ISO/AVC
Duration : 28mn 56s
Bit rate : 1 022 Kbps
Width : 640 pixels
Height : 486 pixels
Display aspect ratio : 4:3
Frame rate mode : Constant
Frame rate : 25.000 fps
Color space : YUV
Chroma subsampling : 4:2:0
Bit depth : 8 bits
Scan type : Progressive
Bits/(Pixel*Frame) : 0.131
Stream size : 212 MiB (98%)
Writing library : x264 core 128
Encoding settings : cabac=1 / ref=3 / deblock=1:0:0 / analyse=0x3:0x133 / me=hex / subme=7 / psy=1 / psy_rd=1.00:0.00 / mixed_ref=1 / me_range=16 / chroma_me=1 / trellis=1 / 8x8dct=1 / cqm=0 / deadzone=21,11 / fast_pskip=1 / chroma_qp_offset=-2 / threads=12 / lookahead_threads=2 / sliced_threads=0 / nr=0 / decimate=1 / interlaced=0 / bluray_compat=0 / constrained_intra=0 / bframes=3 / b_pyramid=2 / b_adapt=1 / b_bias=0 / direct=1 / weightb=1 / open_gop=0 / weightp=2 / keyint=250 / keyint_min=25 / scenecut=40 / intra_refresh=0 / rc_lookahead=40 / rc=crf / mbtree=1 / crf=20.0 / qcomp=0.60 / qpmin=10 / qpmax=51 / qpstep=4 / ip_ratio=1.40 / aq=1:1.00
Default : Yes
Forced : No


:flecha: eD2K link Tih Minh (Louis Feuillade, 1918) (12).mkv [215.82 Mb] 

------------------------------------------------------------------------------------------------------------------------------

Publicada por MagicBerber en Karagarga

Intertítulos en francés y neerlandés.

Subtítulos en español de Eddie Constanti para los 12 episodios: http://www.subdivx.com/X6XNDcxMTk2X-tih-minh-1918.html

------------------------------------------------------------------------------------------------------------------------------

Imagen


Eddie Constanti escribió:
Aquí tenemos por fin la copia completa y restaurada de "Tih Minh", procedente de KG. No encontraréis otra mejor (al menos por ahora). MagicBerber, que la posteó, tuvo la gentileza de "cubrir" ese molesto contador de pie de imagen, que dificulta muy poco la visión.

Y enseguida una confesión: a mí (perdón por personalizar), "Tih Minh" me gusta más que los otros seriales de Feuillade. Éste lo realizó en 1918, o sea que es posterior a "Judex", "Vampires", "Fantomas", etcétera, y del mismo año que "Vendémiaire".
Todo cuanto había de ritmo trepidante y acelerado en estos seriales citados, en "Tih Minh" se convierte en ternura, profundidad de los personajes y reflexión. Y no creáis, por ello, que no hay truculencia y suspense: existen en la dosis justa. Como también existe una maravillosa utilización de la luz, unos encuadres medidos y elegantes, una decoración más que convincente y unos exteriores de ensueño (ved la escena en el supuesto Tonkín, que parece rodada en las mismísimas Indias).

Los intérpretes están magníficos... con una sola excepción (siempre a mi modo de ver, claro): el explorador d'Athys, protagonista principal; estático, inexpresivo, mucha planta y poca uva, en algunas escenas de gran tensión se muestra tan paralítico de gestos que de buena gana le darías un par de cachetes para ver si reaccionaba. Incluso se deja robar el protagonismo por su criado (¡extraordinario Georges Biscot, a quien ya hemos visto en bastantes obras de Feuillade!). Biscot (Placide), es el auténtico héroe del serial, quien se arriesga y vence en aras de agradar a su señor. Luego está la deliciosa Tih Minh, que se ganó a pulso el sueldo pasando la mitad de los capítulos sin memoria y la otra mitad despeñándose por barrancos. Y Rosette, la guapísima sirvienta, novia de Biscot. Y los malos, que aquí lo son muchísimo (como debe ser), intercambiándose turbantes, barbas y bigotes. Y la patética marquesa Dolores, que tiene su aquel...

¿Qué más queréis que os diga? Pues que los episodios están trufados de altas dosis de humor, que cada final de episodio nos deja con el ay en el cuerpo, que no cabe cuestionarse si esto o aquello es creíble y lógico, ya que en estos casos la aventura debe continuar y todo es aceptable. Que los "malos" escapan siempre milagrosamente para seguir haciendo maldades... hasta la penúltima escena, por supuesto. Que hay persecuciones por los tejados. Que interviene una perrita que recorre más kilómetros que Rin-Tin-Tin... Y que Feuillade, repito, creó aquí un estudio de caracteres inolvidable. Vedla sin temor: los actores y actrices son bellos, los malvados son feos a rabiar y a cada sobresalto le sigue una sonrisa.


Respecto a los subtítulos:

Me los descargué también de KG, pero en inglés. Estaban muy mal, pero a mí lo que me interesaba era aprovechar los tiempos. Fijaos si estaban mal, que Lobo López --como siempre--, tuvo que intervenir en la parte técnica para que cuadraran. Al César, lo que es del César.




Imagen

:hi:


 [ Agregar los 12 enlaces a su cliente ed2k ]
Avatar de Usuario
Lobo López
 
Mensajes: 1200
Temas: 289
Registrado: 16 Oct 2012, 14:07
Ubicación: Lunel

Re: Tih Minh (Louis Feuillade, 1918) WEBRip VOSE

Notapor Eddie Constanti » 27 Jun 2016, 21:21

¡Estupendo, Lobo! Ya podéis sacar el cava de la nevera; la ocasión lo merece. Ni la derrota de la gloriosa Roja puede empañar esta maravilla. Y quien no se enamore de la bella Tih Minh, es que no tiene sentimientos en sus células. Digo.
Avatar de Usuario
Eddie Constanti
 
Mensajes: 3461
Temas: 160
Registrado: 05 Ago 2013, 20:31
Ubicación: Vallès Oriental

Re: Tih Minh (Louis Feuillade, 1918) WEBRip VOSE

Notapor fifole » 27 Jun 2016, 22:18

¡Oh là là!, ¡Olé! y lo que haga falta...

Muchas gracias, Eddie y Lobo. :amo:
Avatar de Usuario
fifole
 
Mensajes: 2971
Temas: 529
Registrado: 17 Oct 2012, 19:47

Re: Tih Minh (Louis Feuillade, 1918) WEBRip VOSE

Notapor chaltonheston » 27 Jun 2016, 22:31

Doce veces gracias Lobo, una docena de gracias, Eddie...
Un serial, qué cosas. Hasta hace bien poquito yo estaba convencido que los seriales era algo de los años cuarenta.
Avatar de Usuario
chaltonheston
 
Mensajes: 552
Temas: 3
Registrado: 16 Oct 2012, 16:29

Re: Tih Minh (Louis Feuillade, 1918) WEBRip VOSE

Notapor PREACHER » 28 Jun 2016, 00:04

Chapeau, señores. :amo: :amo:
Avatar de Usuario
PREACHER
 
Mensajes: 3008
Temas: 292
Registrado: 16 Oct 2012, 14:26

Re: Tih Minh (Louis Feuillade, 1918) WEBRip VOSE

Notapor Prudencio » 28 Jun 2016, 00:11

Muchas gracias, Lobo y Eddie. :hi:
Avatar de Usuario
Prudencio
 
Mensajes: 2957
Temas: 5
Registrado: 16 Oct 2012, 17:46

Re: Tih Minh (Louis Feuillade, 1918) WEBRip VOSE

Notapor Bigford » 28 Jun 2016, 00:15

Increible! Muchas gracias
Bigford
 
Mensajes: 223
Registrado: 20 Abr 2015, 20:06

Re: Tih Minh (Louis Feuillade, 1918) WEBRip VOSE

Notapor Eddie Constanti » 28 Jun 2016, 08:59

La tengo descargando para mayor facilidad vuestra.
Avatar de Usuario
Eddie Constanti
 
Mensajes: 3461
Temas: 160
Registrado: 05 Ago 2013, 20:31
Ubicación: Vallès Oriental

Re: Tih Minh (Louis Feuillade, 1918) WEBRip VOSE

Notapor brewster » 28 Jun 2016, 10:30

¡Impresionante!
Muchas gracias a los dos.
:aplauso: :aplauso: :aplauso:
brewster
 
Mensajes: 298
Registrado: 16 Oct 2012, 18:03

Re: Tih Minh (Louis Feuillade, 1918) WEBRip VOSE

Notapor rdeespana » 28 Jun 2016, 15:42

¡Muchas gracias!
La copia que circulaba por la red era un auténtico horreur, esta parece mucho mejor...
rdeespana
 
Mensajes: 305
Registrado: 06 Dic 2012, 03:30

Siguiente

Volver a Cine Mudo

¿Quién está conectado?

Usuarios navegando por este Foro: No hay usuarios registrados visitando el Foro y 1 invitado