Página 1 de 2

The Devil's Needle (Chester Whitey, 1916) DVDRip VOSE

NotaPublicado: 10 Sep 2017, 14:08
por fifole
CICLO: LAS HERMANAS TALMADGE (V)


Imagen

----------------------------------------------------------------------------------

THE DEVIL'S NEEDLE
(1916)


Imagen

IMDb

Producción
Fine Arts Film Company

Director
Chester Withey

Guión
Roy Somerville
Chester Withey

Intérpretes
Tully Marshall
Norma Talmadge
Marguerite Marsh
F.A. Turner
Howard Gaye
John E. Brennan
Paul Le Blanc


Talmadge interpreta a la modelo de un artista, y Marshall al artista, que está falto de inspiración para completar su pintura y necesita una nueva modelo. (FILMAFFINITY).



Eddie Constanti escribió:
Norma en acción, esta vez como la modelo de un pintor con genio pero que discurre por sus horas bajas. Norma se droga y el pintor busca su inspiración enamorándose de la hija de su mecenas-marchante. Pero al verse rechazado, el pintor seguirá los malos consejos de su modelo, quien le induce en el camino del paraíso artificial. Pasado un tiempo, se cambian las tornas: Norma se cura de su adicción y, por contra, el pintor va de mal en peor. Por tanto, será necesario ayudarle a salir de este camino equivocado.

Película que se avanza a la exposición de los males de la droga, en una época en que ese tema resultaba bastante "avanzado", por no decir tabú. Aquí se nos muestran cucharillas, métodos para calentar la heroína e incluso alguna jeringuilla. Ojo, estamos hablando de 1916. Esa valentía se le debe adjudicar al director, Chester Whitel como un gran mérito.

La Talmadge está bien retratada como yonqui y el pintor, Tully Marshall, es demasiado mayor para el papel de galán que le obligan a ejercer. Hay también una intriga paralela, referente a una extraña sociedad contraria a las leyes reformistas, que no viene demasiado a cuento pero que ayuda a completar la trama.

Un desarrollo firme, una buena fotografía e interpretaciones ajustadas configuran esta cinta de denuncia avant la lettre que os hará pasar un buen rato.


Subtítulos en español obra de Eddie Constanti, quien me remitió la película para su posteo.


Imagen


Datos técnicos:
Código: Seleccionar todo
General
Complete name               : Norma Talmadge. The devil's needle 1916.avi
Format                      : AVI
Format/Info                 : Audio Video Interleave
File size                   : 1.09 GiB
Duration                    : 1 h 6 min
Overall bit rate            : 2 353 kb/s
Movie name                  : The Devil's Needle (1916)
Director                    : Chester Withey
Writing application         : VirtualDubMod 1.5.10.2 (build 2542/release)
Writing library             : VirtualDubMod build 2542/release
Copyright                   : Ripped from BluRay KINO

Video
ID                          : 0
Format                      : MPEG-4 Visual
Format profile              : Advanced Simple@L5
Format settings, BVOP       : 2
Format settings, QPel       : No
Format settings, GMC        : No warppoints
Format settings, Matrix     : Default (MPEG)
Codec ID                    : XVID
Codec ID/Hint               : XviD
Duration                    : 1 h 6 min
Bit rate                    : 2 155 kb/s
Width                       : 704 pixels
Height                      : 528 pixels
Display aspect ratio        : 4:3
Frame rate                  : 17.982 (18000/1001) FPS
Original frame rate         : 17.982 (17982/1000) FPS
Color space                 : YUV
Chroma subsampling          : 4:2:0
Bit depth                   : 8 bits
Scan type                   : Progressive
Compression mode            : Lossy
Bits/(Pixel*Frame)          : 0.322
Stream size                 : 1.00 GiB (92%)
Writing library             : XviD 64

Audio
ID                          : 1
Format                      : AC-3
Format/Info                 : Audio Coding 3
Format settings, Endianness : Big
Codec ID                    : 2000
Duration                    : 1 h 6 min
Bit rate mode               : Constant
Bit rate                    : 192 kb/s
Channel(s)                  : 2 channels
Channel positions           : Front: L R
Sampling rate               : 48.0 kHz
Frame rate                  : 31.250 FPS (1536 SPF)
Bit depth                   : 16 bits
Compression mode            : Lossy
Stream size                 : 90.9 MiB (8%)
Alignment                   : Split accross interleaves
Interleave, duration        : 56  ms (1.01 video frame)
Interleave, preload duratio : 500  ms
Title                       : Piano score by Rodney Sauer
Service kind                : Complete Main



Imagen
Imagen
Imagen
Imagen


eD2K link Norma Talmadge. The devil's needle 1916.avi [1.09 Gb] 

Subtítulos en español obra de Eddie Constanti:
http://www.subdivx.com/X6XNTEyNDgy

Re: The Devil's Needle (Chester Whitey, 1916) DVDRip VOSE

NotaPublicado: 10 Sep 2017, 14:36
por Eddie Constanti
Gracias, Fifole.

Re: The Devil's Needle (Chester Whitey, 1916) DVDRip VOSE

NotaPublicado: 10 Sep 2017, 15:34
por Graveland
Muchas gracias, amigos.

Re: The Devil's Needle (Chester Whitey, 1916) DVDRip VOSE

NotaPublicado: 10 Sep 2017, 17:23
por sete
Muchas gracias, fifole y Eddie Constanti.
:hi:

Re: The Devil's Needle (Chester Whitey, 1916) DVDRip VOSE

NotaPublicado: 10 Sep 2017, 17:36
por yojimbo
Muchas gracias, fifole y Eddie Constanti.

Re: The Devil's Needle (Chester Whitey, 1916) DVDRip VOSE

NotaPublicado: 10 Sep 2017, 17:47
por jail
yojimbo escribió:Muchas gracias, fifole y Eddie Constanti.

Re: The Devil's Needle (Chester Whitey, 1916) DVDRip VOSE

NotaPublicado: 10 Sep 2017, 19:55
por Monsieur Lange
Gracias chicos. Vamos bajando. :hi:

Re: The Devil's Needle (Chester Whitey, 1916) DVDRip VOSE

NotaPublicado: 10 Sep 2017, 20:15
por Angeluco
Muchas gracias,Fífole y Eddie.

Re: The Devil's Needle (Chester Whitey, 1916) DVDRip VOSE

NotaPublicado: 11 Sep 2017, 19:07
por Prudencio
Muchas gracias, fifole y Eddie. :hi:

Re: The Devil's Needle (Chester Whitey, 1916) DVDRip VOSE

NotaPublicado: 12 Sep 2017, 00:23
por gezy.card
Muchas gracias, fifole y Eddie.