Until They Get Me (Frank Borzage, 1917) VHSRip VOSE

El maravilloso mundo del cine silente.
Hasta 1936 inclusive (<= 1936)

Moderador: Monsieur Lange

Estados Unidos Until They Get Me (Frank Borzage, 1917) VHSRip VOSE

Notapor fifole » 03 Dic 2017, 13:20

UNTIL THEY GET ME
(1917)


Imagen

IMDb


Producción
Triangle Film Corporation

Director
Frank Borzage

Guión
Kenneth B. Clarke

Intérpretes
Pauline Starke
Jack Curtis
Joe King
Wilbur Higby
Anna Dodge
Walter Perry


Intentando llegar a tiempo al lecho de muerte de su esposa, Kirby mata a un hombre en defensa propia. Es detenido por Selwyn, un miembro de la Policía Montada del Canadá, quien le permite despedirse de su moribunda esposa. Después de su muerte, Kirby elude Selwyn y se convierte en un fugitivo de la policía. Cada año regresa para visitar a su hijo y, durante una de sus estancias, encuentra a Margy, una pequeña sirvienta de una granja, que ha huído de esa vida de servidumbre...


La película me la pasó muy amablemente yojimbo, al encontrarse sin fuentes en la mula. Los subtítulos son obra de palmirowashington.



Until They Get Me (diciembre de 1917), es una perla rara, sin duda uno de los más hermosos logros del género en los años diez. Ráfagas de poesía en bruto se conjugan en éste con un erotismo lacerante del que no habrá equivalente hasta King Vidor o Nicholas Ray. El reparto lo componen Jack Curtis, un veterano de las películas de vaqueros, el joven tejano Joe King y el adorable duende Pauline Starke, una adolescente de dieciséis años recién ingresada del plató de Intolerance en donde remedaba a la favorita del harén babilónico de Baltasar.
Hervé Dumont




Imagen
Pauline Starke


Datos técnicos:
Código: Seleccionar todo
General
Complete name               : Until they get me (Frank Borzage, 1917).avi
Format                      : AVI
Format/Info                 : Audio Video Interleave
File size                   : 1.06 GiB
Duration                    : 57 min 42 s
Overall bit rate            : 2 627 kb/s
Writing application         : VirtualDubMod 1.5.10.2 (build 2540/release)
Writing library             : VirtualDubMod build 2540/release

Video
ID                          : 0
Format                      : MPEG-4 Visual
Format profile              : Advanced Simple@L5
Format settings, BVOP       : 2
Format settings, QPel       : No
Format settings, GMC        : No warppoints
Format settings, Matrix     : Default (H.263)
Muxing mode                 : Packed bitstream
Codec ID                    : XVID
Codec ID/Hint               : XviD
Duration                    : 57 min 42 s
Bit rate                    : 2 362 kb/s
Width                       : 704 pixels
Height                      : 512 pixels
Display aspect ratio        : 1.375
Frame rate                  : 23.976 (24000/1001) FPS
Original frame rate         : 23.976 (23976/1000) FPS
Color space                 : YUV
Chroma subsampling          : 4:2:0
Bit depth                   : 8 bits
Scan type                   : Progressive
Compression mode            : Lossy
Bits/(Pixel*Frame)          : 0.273
Stream size                 : 975 MiB (90%)
Writing library             : XviD 0039 build=2005.09.16 (UTC 2005-09-16)

Audio
ID                          : 1
Format                      : AC-3
Format/Info                 : Audio Coding 3
Format settings, Endianness : Big
Codec ID                    : 2000
Duration                    : 57 min 39 s
Bit rate mode               : Constant
Bit rate                    : 256 kb/s
Channel(s)                  : 2 channels
Channel positions           : Front: L R
Sampling rate               : 48.0 kHz
Frame rate                  : 31.250 FPS (1536 SPF)
Bit depth                   : 16 bits
Compression mode            : Lossy
Stream size                 : 106 MiB (10%)
Alignment                   : Split accross interleaves
Interleave, duration        : 42  ms (1.00 video frame)
Interleave, preload duratio : 500  ms
Service kind                : Complete Main



Imagen
Imagen
Imagen
Imagen
Imagen


eD2K link Until they get me (Frank Borzage, 1917).avi [1.06 Gb] 

Subtítulos en español obra de palmirowashington:
https://www.subdivx.com/X6XNDY5ODI5X
Avatar de Usuario
fifole
 
Mensajes: 2991
Temas: 537
Registrado: 17 Oct 2012, 19:47

Re: Until They Get Me (Frank Borzage, 1917) VHSRip VOSE

Notapor james mason » 03 Dic 2017, 14:07

Muchas gracias palmirowashington, yojimbo, fifole! :aplauso: :aplauso: :aplauso:

:hi:
james mason
 
Mensajes: 800
Temas: 12
Registrado: 03 Oct 2012, 10:31
Ubicación: En algún lugar de Extremadura

Re: Until They Get Me (Frank Borzage, 1917) VHSRip VOSE

Notapor Prudencio » 03 Dic 2017, 14:14

A la espera de una posible restauración, intentaremos disfrutar de esta joya olvidada.
Muchas gracias, fifole, yojimbo y palmirowashington. :hi:
Avatar de Usuario
Prudencio
 
Mensajes: 2987
Temas: 5
Registrado: 16 Oct 2012, 17:46

Re: Until They Get Me (Frank Borzage, 1917) VHSRip VOSE

Notapor eulsus » 03 Dic 2017, 14:49

Muchas gracias, fifole y por supuesto también a yojimbo por saber estar siempre "al quite" y haber facilitado la copia.
"Una nación no se pierde porque unos la ataquen, sino porque quienes la aman no la defienden."
Blas de Lezo y Olavarrieta
Almirante español (1689-1741)
Avatar de Usuario
eulsus
 
Mensajes: 545
Temas: 21
Registrado: 08 Abr 2015, 00:14
Ubicación: La Palma

Re: Until They Get Me (Frank Borzage, 1917) VHSRip VOSE

Notapor jail » 03 Dic 2017, 15:01

Gracias, fifole, yojimbo y palmirowashington.
jail
 
Mensajes: 4071
Temas: 6
Registrado: 18 Oct 2012, 14:34

Re: Until They Get Me (Frank Borzage, 1917) VHSRip VOSE

Notapor Monsieur Lange » 03 Dic 2017, 18:29

Mil gracias Fifole. Un Borzage más. :aplauso:
"¡De buena nos hemos librado! ¡Nada menos que el señorito salamanquino!

Francisco Camacho (1936). "El cura de aldea"
Avatar de Usuario
Monsieur Lange
 
Mensajes: 2933
Temas: 73
Registrado: 13 Sep 2012, 18:39
Ubicación: Cruzando las dunas

Re: Until They Get Me (Frank Borzage, 1917) VHSRip VOSE

Notapor yojimbo » 03 Dic 2017, 20:08

Muchas gracias, fifole y palmirowashington.
Avatar de Usuario
yojimbo
 
Mensajes: 6716
Temas: 17
Registrado: 18 Oct 2012, 13:25

Re: Until They Get Me (Frank Borzage, 1917) VHSRip VOSE

Notapor Angeluco » 04 Dic 2017, 08:57

jail escribió:Gracias, fifole, yojimbo y palmirowashington.


Muchas gracias a todos los participantes en esta colaboración.
Angeluco
 
Mensajes: 823
Temas: 1
Registrado: 25 Nov 2012, 12:41

Re: Until They Get Me (Frank Borzage, 1917) VHSRip VOSE

Notapor gatatitania » 05 Dic 2017, 00:03

¡Gracias a toda la troupe! :aplauso: :aplauso: :aplauso:
Avatar de Usuario
gatatitania
 
Mensajes: 3258
Temas: 102
Registrado: 16 Oct 2012, 17:27
Ubicación: Gatatitania es un gato hambriento, superviviente del planeta gatatitania...


Volver a Cine Mudo

¿Quién está conectado?

Usuarios navegando por este Foro: No hay usuarios registrados visitando el Foro y 1 invitado