The Farmer's Wife (Alfred Hitchcock, 1928) BDRip VOSE

La mujer del granjero

El maravilloso mundo del cine silente.
Hasta 1936 inclusive (<= 1936)

Moderador: Monsieur Lange

Reino Unido The Farmer's Wife (Alfred Hitchcock, 1928) BDRip VOSE

Notapor fifole » 04 Dic 2017, 23:04

LA MUJER DEL GRANJERO
(1928)


Imagen

IMDb


Producción
British International Pictures

Director
Alfred Hitchcock

Guión
Eliot Stannard

Argumento
La obra de
Eden Phillpotts

Intérpretes
Jameson Thomas
Lillian Hall-Davis
Gordon Harker
Gibb McLaughlin
Maud Gill
Louie Pounds
Olga Slade


El granjero Samuel Sweetland (Jameson Thomas) acaba de perder a su esposa, y tras haber casado a su única hija, ha quedado solo con su leal ama de llaves, Araminta (Lilian Hall-Davis) y con su ayudante Churdles Ash (Gordon Harker). Pensando entonces en volver a casarse, Sweetland hará una lista de los mejores prospectos que podría encontrar entre sus conocidas y su propósito, desde entonces, será conquistar a alguna de ellas. (FILMAFFINITY)


Ripeo procedente de Rutracker.


Imagen



De toda la etapa inglesa de Hitchcock - incluyendo películas mudas y sonoras- la que más me gusta es la que menos esperaba de él: una deliciosa comedia campestre sin crímenes ni suspense, generalmente menospreciada, que tiene algo que ver con Prästänkan (1920) de Dreyer y con The Quiet Man (El hombre tranquilo, 1952) de Ford, titulada The Farmer's Wife (1928), y que es su antepenúltimo film completamente mudo.
Miguel Marías



Imagen

No tengo un recuerdo muy preciso de The Farmer's Wife, pero es cierto, en efecto, que al rodar una obra de teatro se avivó mi deseo de expresarme por medios propiamente cinematográficos.
Alfred Hitchcock



Datos técnicos:
Código: Seleccionar todo
General
Complete name               : The.Farmers.Wife.1928.720p.WEBRip.DD2.0.x264-SbR.mkv
Format                      : Matroska
Format version              : Version 2
File size                   : 3.08 GiB
Duration                    : 1 h 38 min
Overall bit rate mode       : Variable
Overall bit rate            : 4 500 kb/s
Encoded date                : UTC 2016-10-13 18:34:57
Writing application         : mkvmerge v9.4.2 ('So High') 64bit
Writing library             : libebml v1.3.4 + libmatroska v1.4.5
Cover                       : Yes
Attachments                 : cover.jpg

Video
ID                          : 1
Format                      : AVC
Format/Info                 : Advanced Video Codec
Format profile              : High@L3.1
Format settings, CABAC      : Yes
Format settings, RefFrames  : 5 frames
Codec ID                    : V_MPEG4/ISO/AVC
Duration                    : 1 h 38 min
Bit rate mode               : Variable
Bit rate                    : 4 187 kb/s
Maximum bit rate            : 4 500 kb/s
Width                       : 960 pixels
Height                      : 720 pixels
Display aspect ratio        : 4:3
Frame rate mode             : Constant
Frame rate                  : 23.976 (24000/1001) FPS
Color space                 : YUV
Chroma subsampling          : 4:2:0
Bit depth                   : 8 bits
Scan type                   : Progressive
Bits/(Pixel*Frame)          : 0.253
Stream size                 : 2.87 GiB (93%)
Writing library             : x264 core 148 r2623 d5b2374
Encoding settings           : cabac=1 / ref=5 / deblock=1:-1:-1 / analyse=0x3:0x133 / me=umh / subme=9 / psy=1 / psy_rd=1.00:0.15 / mixed_ref=1 / me_range=24 / chroma_me=1 / trellis=2 / 8x8dct=1 / cqm=0 / deadzone=21,11 / fast_pskip=1 / chroma_qp_offset=-3 / threads=22 / lookahead_threads=3 / sliced_threads=0 / nr=150 / decimate=1 / interlaced=0 / bluray_compat=0 / constrained_intra=0 / bframes=8 / b_pyramid=2 / b_adapt=2 / b_bias=0 / direct=3 / weightb=1 / open_gop=0 / weightp=2 / keyint=120 / keyint_min=61 / scenecut=0 / intra_refresh=0 / rc_lookahead=120 / rc=crf / mbtree=1 / crf=18.0 / qcomp=0.60 / qpmin=0 / qpmax=69 / qpstep=4 / vbv_maxrate=4500 / vbv_bufsize=17500 / crf_max=0.0 / nal_hrd=vbr / filler=0 / ip_ratio=1.40 / aq=3:1.00
Language                    : English
Default                     : Yes
Forced                      : No
Color range                 : Limited
Color primaries             : BT.709
Transfer characteristics    : BT.709
Matrix coefficients         : BT.709

Audio
ID                          : 2
Format                      : E-AC-3
Format/Info                 : Enhanced Audio Coding 3
Format settings, Endianness : Big
Codec ID                    : A_EAC3
Duration                    : 1 h 38 min
Bit rate mode               : Constant
Bit rate                    : 224 kb/s
Channel(s)                  : 2 channels
Channel positions           : Front: L R
Sampling rate               : 48.0 kHz
Frame rate                  : 187.500 FPS (256 SPF)
Compression mode            : Lossy
Stream size                 : 157 MiB (5%)
Service kind                : Complete Main
Default                     : Yes
Forced                      : No



Imagen
Imagen
Imagen
Imagen
Imagen
Imagen


eD2K link The.Farmers.Wife.1928.720p.WEBRip.DD2.0.x264-SbR.mkv [3.08 Gb] 

Subtítulos en español obra de aalto:
(arreglados y ajustados por segobrigense)
https://www.subdivx.com/X6XNDg1Mzc0X-th ... -1928.html
Avatar de Usuario
fifole
 
Mensajes: 2991
Temas: 537
Registrado: 17 Oct 2012, 19:47

Re: The Farmer's Wife (Alfred Hitchcock, 1928) BDRip VOSE

Notapor gatatitania » 05 Dic 2017, 00:02

¡Gracias a los dos! :aplauso: :aplauso: :aplauso:
Avatar de Usuario
gatatitania
 
Mensajes: 3258
Temas: 102
Registrado: 16 Oct 2012, 17:27
Ubicación: Gatatitania es un gato hambriento, superviviente del planeta gatatitania...

Re: The Farmer's Wife (Alfred Hitchcock, 1928) BDRip VOSE

Notapor xeneise007 » 05 Dic 2017, 05:51

Gracias Fifole, renuevo la copia que tengo. :genial:
xeneise007
 
Mensajes: 598
Registrado: 08 Ene 2013, 12:19
Ubicación: Reino de Aragón

Re: The Farmer's Wife (Alfred Hitchcock, 1928) BDRip VOSE

Notapor jail » 05 Dic 2017, 11:10

Gracias, fifole, aalto, segobrigense y a la gente de rutracker.org. ¡Nada menos que un Hitchcock!
jail
 
Mensajes: 4071
Temas: 6
Registrado: 18 Oct 2012, 14:34

Re: The Farmer's Wife (Alfred Hitchcock, 1928) BDRip VOSE

Notapor yojimbo » 05 Dic 2017, 14:02

Muchas gracias, fifole, aalto y Lobo López.
Avatar de Usuario
yojimbo
 
Mensajes: 6716
Temas: 17
Registrado: 18 Oct 2012, 13:25

Re: The Farmer's Wife (Alfred Hitchcock, 1928) BDRip VOSE

Notapor Graveland » 05 Dic 2017, 14:12

Muchas gracias, fifole, aalto y Lobo López.
Avatar de Usuario
Graveland
 
Mensajes: 2135
Temas: 291
Registrado: 22 Nov 2012, 15:30

Re: The Farmer's Wife (Alfred Hitchcock, 1928) BDRip VOSE

Notapor Bigford » 05 Dic 2017, 18:39

Gracias por la oportunidad, es una película que ví hace tantos años que la tengo totalmente olvidada
Bigford
 
Mensajes: 226
Registrado: 20 Abr 2015, 20:06

Re: The Farmer's Wife (Alfred Hitchcock, 1928) BDRip VOSE

Notapor Arthur James Hamp » 05 Dic 2017, 19:57

Muchas gracias, aalto, Lobo López y fifole. :genial: :aplauso: :aplauso:
"Cuando tu cabeza dice una cosa y toda tu vida dice la otra, la cabeza siempre pierde" (Cayo Largo)
Avatar de Usuario
Arthur James Hamp
 
Mensajes: 860
Temas: 99
Registrado: 06 May 2016, 10:47

Re: The Farmer's Wife (Alfred Hitchcock, 1928) BDRip VOSE

Notapor Prudencio » 05 Dic 2017, 21:30

Muchas gracias a todos. :hi:
Avatar de Usuario
Prudencio
 
Mensajes: 2987
Temas: 5
Registrado: 16 Oct 2012, 17:46

Re: The Farmer's Wife (Alfred Hitchcock, 1928) BDRip VOSE

Notapor ciberyago » 06 Dic 2017, 05:58

Muchas gracias!
ciberyago
 
Mensajes: 1816
Temas: 3
Registrado: 20 Oct 2012, 06:26

Siguiente

Volver a Cine Mudo

¿Quién está conectado?

Usuarios navegando por este Foro: Prudencio y 1 invitado