Downhill (Alfred Hitchcock, 1927) BDRip VOSE

Declive

El maravilloso mundo del cine silente.
Hasta 1936 inclusive (<= 1936)

Moderador: Monsieur Lange

Reino Unido Downhill (Alfred Hitchcock, 1927) BDRip VOSE

Notapor fifole » 11 Dic 2017, 14:10

DOWNHILL
(1927)


Imagen

IMDb


Producción
Gainsborough Pictures

Director
Alfred Hitchcock

Guión
Eliot Stannard

Argumento
La obra de
Ivor Novello y Constance Collier

Intérpretes
Ivor Novello
Isabel Jeans
Lilian Braithwaite
Ian Hunter
Norman McKinnel
Ben Webster
Robin Irvine


Roddy (Ivor Novello), primogénito de la rica familia Berwick, es expulsado del instituto acusado de haber ultrajado a una mujer y su padre le repudia. Entonces decide ir a París donde se gasta el último dinero que le queda y comienza a trabajar como bailarín. (FILMAFFINITY)


Ripeo procedente de Rutracker.

Downhill esconde el anticipo del esquema del film "de persecución" hitchcockiano desarrollado en clave moral. El equívoco se impone ya como resorte de la fatalidad, como motor que impulsa el descenso a los infiernos de la desesperación, de la "caída". Este "descenso" al que más o menos alude el título es, efectivamente, un descenso moral, que el film enlaza además con un descenso físico y geográfico (de Inglaterra a París, de París a Marsella, de Marsella a una supuesta Sudáfrica...) que el realizador se encarga de enfatizar con su planificación y su manera de encuadrar, bien atenta ya a la mostración no sólo de una acción sino del concepto que le corresponde.
Enrique Alberich



Imagen


Datos técnicos:
Código: Seleccionar todo
General
Complete name               : Downhill.1927.BDRip.XviD.AC3.-HQCLUB.avi
Format                      : AVI
Format/Info                 : Audio Video Interleave
File size                   : 1.45 GiB
Duration                    : 1 h 45 min
Overall bit rate            : 1 971 kb/s
Writing application         : VirtualDubMod 1.5.10.2 (build 2540/release)
Copyright                   : http://hqclub.net/
Comment                     : 10.01.2014

Video
ID                          : 0
Format                      : MPEG-4 Visual
Format profile              : Advanced Simple@L5
Format settings, BVOP       : 1
Format settings, QPel       : No
Format settings, GMC        : No warppoints
Format settings, Matrix     : Custom
Codec ID                    : XVID
Codec ID/Hint               : XviD
Duration                    : 1 h 45 min
Bit rate                    : 1 769 kb/s
Width                       : 704 pixels
Height                      : 528 pixels
Display aspect ratio        : 4:3
Frame rate                  : 24.000 FPS
Color space                 : YUV
Chroma subsampling          : 4:2:0
Bit depth                   : 8 bits
Scan type                   : Progressive
Compression mode            : Lossy
Bits/(Pixel*Frame)          : 0.198
Stream size                 : 1.30 GiB (90%)
Writing library             : XviD 65

Audio
ID                          : 1
Format                      : AC-3
Format/Info                 : Audio Coding 3
Format settings, Endianness : Big
Codec ID                    : 2000
Duration                    : 1 h 45 min
Bit rate mode               : Constant
Bit rate                    : 192 kb/s
Channel(s)                  : 2 channels
Channel positions           : Front: L R
Sampling rate               : 48.0 kHz
Frame rate                  : 31.250 FPS (1536 SPF)
Bit depth                   : 16 bits
Compression mode            : Lossy
Stream size                 : 145 MiB (10%)
Alignment                   : Split accross interleaves
Interleave, duration        : 42  ms (1.00 video frame)
Interleave, preload duratio : 500  ms
Service kind                : Complete Main



Imagen
Imagen
Imagen
Imagen
Imagen


eD2K link Downhill.1927.BDRip.XviD.AC3.-HQCLUB.avi [1.45 Gb] 

Subtítulos en español subidos por Rynat:
https://www.subdivx.com/X6XNTE0MDgzX
Avatar de Usuario
fifole
 
Mensajes: 3049
Temas: 557
Registrado: 17 Oct 2012, 18:47

Re: Downhill (Alfred Hitchcock, 1927) BDRip VOSE

Notapor Angeluco » 11 Dic 2017, 15:31

Está reponiendo todas las de Hitchcock,muy buena idea para todos aquellos que aún no las tienen.
Muchas gracias,Fífole y Rynat.
Angeluco
 
Mensajes: 842
Temas: 1
Registrado: 25 Nov 2012, 11:41

Re: Downhill (Alfred Hitchcock, 1927) BDRip VOSE

Notapor Arthur James Hamp » 11 Dic 2017, 16:11

Muchas gracias Fífole y Rynat. :genial: :aplauso: :aplauso:
"Cuando tu cabeza dice una cosa y toda tu vida dice la otra, la cabeza siempre pierde" (Cayo Largo)
Avatar de Usuario
Arthur James Hamp
 
Mensajes: 903
Temas: 103
Registrado: 06 May 2016, 09:47

Re: Downhill (Alfred Hitchcock, 1927) BDRip VOSE

Notapor Prudencio » 11 Dic 2017, 17:15

Mejorando copia.
Muchas gracias, Fifole y Rynat. :hi:
Avatar de Usuario
Prudencio
 
Mensajes: 3046
Temas: 5
Registrado: 16 Oct 2012, 16:46

Re: Downhill (Alfred Hitchcock, 1927) BDRip VOSE

Notapor fruega » 11 Dic 2017, 18:21

Muchas gracias.
fruega
 
Mensajes: 221
Registrado: 19 Oct 2012, 18:41

Re: Downhill (Alfred Hitchcock, 1927) BDRip VOSE

Notapor jail » 11 Dic 2017, 19:38

Gracias, fifole, Rynat y predator1976.
jail
 
Mensajes: 4159
Temas: 6
Registrado: 18 Oct 2012, 13:34

Re: Downhill (Alfred Hitchcock, 1927) BDRip VOSE

Notapor sete » 11 Dic 2017, 21:39

Muchas gracias, fifole, Rynat y predator1976.
:hi:
Este mundo está traicionando a la vida.
José Luis Sampedro
Avatar de Usuario
sete
 
Mensajes: 2502
Registrado: 22 Dic 2012, 15:10

Re: Downhill (Alfred Hitchcock, 1927) BDRip VOSE

Notapor xeneise007 » 12 Dic 2017, 04:45

Gracias Fifole, renovando copia. :hi:
xeneise007
 
Mensajes: 631
Registrado: 08 Ene 2013, 11:19
Ubicación: Reino de Aragón

Re: Downhill (Alfred Hitchcock, 1927) BDRip VOSE

Notapor adelon » 12 Dic 2017, 08:20

Muchas gracias. Pinchando.
Avatar de Usuario
adelon
 
Mensajes: 342
Registrado: 16 Oct 2012, 15:17

Re: Downhill (Alfred Hitchcock, 1927) BDRip VOSE

Notapor yojimbo » 12 Dic 2017, 11:49

Muchas gracias, fifole y Rynat.
Avatar de Usuario
yojimbo
 
Mensajes: 6796
Temas: 17
Registrado: 18 Oct 2012, 12:25

Siguiente

Volver a Cine Mudo

¿Quién está conectado?

Usuarios navegando por este Foro: No hay usuarios registrados visitando el Foro y 2 invitados